西西论坛

 找回密码
 立即注册
搜索

笙歌喧腾/乐园危机 Strike.Up.the.Band.1940.720p.BluRay.x264-ORBS 6.10GB

[复制链接]
admin 发表于 2021-11-16 09:35:11 | 显示全部楼层 |阅读模式
笙歌喧腾/乐园危机 Strike.Up.the.Band.1940.720p.BluRay.x264-ORBS 6.10GB                                                                                                                                                                                                                                                                                                                                                                                                                                                                                                                                        -->
帖子完整标题:笙歌喧腾/乐园危机 Strike.Up.the.Band.1940.720p.BluRay.x264-ORBS 6.10GB



b9ef547ce7b98a2daf8753e00c918a3e.jpg



◎译  名 笙歌喧腾/乐园危机/乐队开始演奏
◎片  名 Strike Up the Band
◎年  代 1940
◎产  地 美国
◎类  别 喜剧 / 爱情 / 歌舞
◎语  言 英语
◎上映日期 1940-09-27
◎豆瓣评分 /10 from 0 users
◎豆瓣链接 
◎片  长 120 分钟
◎导  演 巴斯比·伯克利 Busby Berkeley
◎编  剧 弗雷德·芬克勒霍夫 Fred F. Finklehoffe / 小约翰·蒙克斯 John Monks Jr. / Kay Van Riper Kay Van Riper / 赫伯特·菲尔茨 Herbert Fields
◎主  演 米基·鲁尼 Mickey Rooney
       Margaret Marquis Margaret Marquis
       杰克·茂豪尔 Jack Mulhall
       玛格丽特·麦克韦德 Margaret McWade
       David Oliver David Oliver
       Dick Paxton Dick Paxton
       弗朗西斯·皮埃洛 Francis Pierlot
       June Preisser June Preisser
       Jimmie Lucas Jimmie Lucas
       Lois Lindsay Lois Lindsay
       Harry McCrillis Harry McCrillis
       Wallace Musselwhite Wallace Musselwhite
       安·休梅克 Ann Shoemaker
       Larry Nunn Larry Nunn
       保罗·惠特曼 Paul Whiteman
       Joe Yule Joe Yule
       Myron Speth Myron Speth
       William Tracy William Tracy
       Charles Smith Charles Smith
       Leonard Sues Leonard Sues
       Victoria Vinton Victoria Vinton
       玛格利特·塞登 Margaret Seddon
       Henry Roquemore Henry Roquemore
       Helen Seamon Helen Seamon
       Virginia Sale Virginia Sale
       西德尼·米勒 Sidney Miller
       乔治·莱西 George Lessey
       Mickey Martin Mickey Martin
       Don Castle Don Castle
       Elliot Carpenter Elliot Carpenter
       弗吉尼亚·布里萨克 Virginia Brissac
       Harlan Briggs Harlan Briggs
       Jack Baxley Jack Baxley
       Lowden Adams Lowden Adams
       霍华德·C·希克曼 Howard C. Hickman
       菲尔·西尔沃斯 Phil Silvers
       Richard Allen Richard Allen
       杰克·艾伯森 Jack Albertson
       朱迪·加兰 Judy Garland
       Mary Jo Ellis Mary Jo Ellis
       玛格丽特·厄利 Margaret Early
       Louise La Planche Louise La Planche
       Linda Leighton Linda Leighton
       Milton Kibbee Milton Kibbee
       Jack Kenny Jack Kenny
       Lois James Lois James
       Earle Hodgins Earle Hodgins
       哈利·哈维 Harry Harvey
       罗兰·郭 Roland Got
       Joe Devlin Joe Devlin
       Vondell Darr Vondell Darr
       海伦·杰尔姆·埃迪 Helen Jerome Eddy
       萨拉·爱德华兹 Sarah Edwards
       伊妮德·贝内特 Enid Bennett

◎标  签 美国 | 歌舞 | 爱情 | 歌舞片 | Musical | 电影 | 喜剧 | l-english

◎简  介

  暂无相关剧情介绍

◎获奖情况

  第13届奥斯卡金像奖 ?(1941)
  最佳录音 道格拉斯·希勒
  最佳配乐(提名) 乔治·斯托尔?/?罗杰·埃登斯
  最佳原创歌曲(提名) 乔治·斯托尔?/?罗杰·埃登斯
Video
ID                                       : 1
Format                                   : AVC
Format/Info                              : Advanced Video Codec
Format profile                           :
Format settings                          : CABAC / 11 Ref Frames
Format settings, CABAC                   : Yes
Format settings, Reference frames        : 11 frames
Codec ID                                 : V_MPEG4/ISO/AVC
Duration                                 : 2 h 0 min
Bit rate                                 : 7 012 kb/s
Width                                    : 986 pixels
Height                                   : 720 pixels
Display aspect ratio                     : 4:3
Frame rate mode                          : Constant
Frame rate                               : 23.976 (24000/1001/189150) FPS
Color space                              : YUV
Chroma subsampling                       : 4:2:0
Bit depth                                : 8 bits
Scan type                                : Progressive
Bits/(Pixel*Frame)                       : 0.412
Stream size                              : 5.88 GiB (96%)
Writing library                          : x264 core 164 r3065 ae03d92
Encoding settings                        : cabac=1 / ref=11 / deblock=1:-3:-3 / analyse=0x3:0x133 / me=umh / subme=10 / psy=1 / psy_rd=1.20:0.00 / mixed_ref=1 / me_range=24 / chroma_me=1 / trellis=2 / 8x8dct=1 / cqm=0 / deadzone=21,11 / fast_pskip=0 / chroma_qp_offset=-2 / threads=22 / lookahead_threads=3 / sliced_threads=0 / nr=0 / decimate=0 / interlaced=0 / bluray_compat=0 / constrained_intra=0 / bframes=8 / b_pyramid=2 / b_adapt=2 / b_bias=0 / direct=3 / weightb=1 / open_gop=0 / weightp=2 / keyint=250 / keyint_min=23 / scenecut=40 / intra_refresh=0 / rc_lookahead=60 / rc=crf / mbtree=1 / crf=19.0 / qcomp=0.60 / qpmin=0 / qpmax=69 / qpstep=4 / ip_ratio=1.40 / aq=3:0.90
Default                                  : Yes
Forced                                   : No
Color range                              : Limited
Matrix coefficients                      : BT.709

Audio
ID                                       : 2
Format                                   : FLAC
Format/Info                              : Free Lossless Audio Codec
Codec ID                                 : A_FLAC
Duration                                 : 2 h 0 min
Bit rate mode                            : Variable
Bit rate                                 : 244 kb/s
Channel(s)                               : 2 channels
Channel layout                           : L R
Sampling rate                            : 48.0 kHz
Frame rate                               : 11.719 FPS (4096 SPF)
Bit depth                                : 16 bits
Compression mode                         : Lossless
Stream size                              : 209 MiB (3%)
Writing library                          : libFLAC 1.3.3 (UTC 2019-08-04)
Language                                 : English
Default                                  : Yes
Forced                                   : No

Text
ID                                       : 3
Format                                   : PGS
Muxing mode                              : zlib
Codec ID                                 : S_HDMV/PGS
Codec ID/Info                            : Picture based subtitle format used on BDs/HD-DVDs
Duration                                 : 1 h 59 min
Bit rate                                 : 45.3 kb/s
Count of elements                        : 4440
Stream size                              : 38.7 MiB (1%)
Title                                    : SDH
Language                                 : English
Default                                  : No
Forced                                   : No

Menu
00:00:00.000                             : Chapter 01
00:05:04.638                             : Chapter 02
00:09:29.319                             : Chapter 03
00:12:26.746                             : Chapter 04
00:17:31.676                             : Chapter 05
00:20:24.890                             : Chapter 06
00:25:11.510                             : Chapter 07
00:27:58.510                             : Chapter 08
00:31:21.129                             : Chapter 09
00:37:30.874                             : Chapter 10
00:42:25.376                             : Chapter 11
00:44:58.070                             : Chapter 12
00:49:38.517                             : Chapter 13
00:53:56.817                             : Chapter 14
00:56:49.406                             : Chapter 15
01:01:39.112                             : Chapter 16
01:08:10.211                             : Chapter 17
01:12:31.931                             : Chapter 18
01:16:16.781                             : Chapter 19
01:18:54.730                             : Chapter 20
01:21:01.857                             : Chapter 21
01:23:36.011                             : Chapter 22
01:26:22.844                             : Chapter 23
01:28:56.373                             : Chapter 24
01:32:58.072                             : Chapter 25
01:36:57.145                             : Chapter 26
01:40:43.120                             : Chapter 27
01:44:37.271                             : Chapter 28
01:48:17.783                             : Chapter 29
01:51:14.668                             : Chapter 30
01:55:00.977                             : Chapter 31
01:55:54.948                             : Chapter 32
01:57:39.219                             : Chapter 33
01:58:27.892                             : Chapter 34
01:59:22.655                             : Chapter 35
01:59:59.192                             : Chapter 36

37cb75ab400212e9d5b2048e88f5d1b1.jpg





                                                                                                                                                                                                        
                                                                                                                                                                                                                                                                                                                                                                                                                                                                                                                                                                                                                                                                                                                                                                                                                                                        
0c3fd68fb53bf999646d7790804235b9.torrent (16 KB, 下载次数: 0)

回复

使用道具 举报

小黑屋|西西论坛

本网站所有资源来自网络,如无意中侵犯了您的权益,请发邮件至 [email protected],立即清除相关链接

GMT+8, 2021-12-3 15:46 , Processed in 0.114356 second(s), 17 queries .

Powered by Discuz! X3.2

© 2001-2013 Comsenz Inc.

快速回复 返回顶部 返回列表