西西论坛

 找回密码
 立即注册
搜索

万能太保肉搏女飞贼 Argoman.the.Fantastic.Superman.1967.DUBBED.720p.BluRay.x264-G ...

[复制链接]
admin 发表于 2021-11-15 09:34:13 | 显示全部楼层 |阅读模式
万能太保肉搏女飞贼 Argoman.the.Fantastic.Superman.1967.DUBBED.720p.BluRay.x264-GUACAMOLE                                                                                                                                                                                                                                                                                                                                                                                                                                                                                                                                        -->
帖子完整标题:万能太保肉搏女飞贼 Argoman.the.Fantastic.Superman.1967.DUBBED.720p.BluRay.x264-GUACAMOLE 4.10GB



ebb9d4ac7e3f2d4ea486bb85f61f9257.jpg



◎译  名 万能太保肉搏女飞贼/Argoman the Fantastic Superman
◎片  名 Come rubare la corona d'Inghilterra
◎年  代 1967
◎产  地 意大利
◎类  别 动作 / 科幻 / 冒险
◎语  言 法语,意大利语
◎上映日期 1967-03-24(意大利)
◎豆瓣评分 /10 from 0 users
◎豆瓣链接 
◎主  演 罗杰·布朗 Roger Browne

◎标  签 意大利 | 动作 | 1967

◎简  介

  Argoman is practically invincible with powers beyond the scope of mortal man. Who is Sir Reginald Hoover, he seems to know what mission Argoman is involved with? Will Jenabell become the Queen of the World and achieve her wishes to outsmart Argoman?
Video
ID                                       : 1
Format                                   : AVC
Format/Info                              : Advanced Video Codec
Format profile                           : [email protected]
Format settings                          : CABAC / 8 Ref Frames
Format settings, CABAC                   : Yes
Format settings, Reference frames        : 8 frames
Codec ID                                 : V_MPEG4/ISO/AVC
Duration                                 : 1 h 28 min
Bit rate                                 : 6 330 kb/s
Width                                    : 1 280 pixels
Height                                   : 544 pixels
Display aspect ratio                     : 2.35:1
Frame rate mode                          : Constant
Frame rate                               : 23.976 (24000/1001/189150) FPS
Color space                              : YUV
Chroma subsampling                       : 4:2:0
Bit depth                                : 8 bits
Scan type                                : Progressive
Bits/(Pixel*Frame)                       : 0.379
Stream size                              : 3.90 GiB (95%)
Writing library                          : x264 core 164 r3075 66a5bc1
Encoding settings                        : cabac=1 / ref=8 / deblock=1:-3:-3 / analyse=0x3:0x133 / me=umh / subme=9 / psy=1 / psy_rd=1.00:0.00 / mixed_ref=1 / me_range=16 / chroma_me=1 / trellis=2 / 8x8dct=1 / cqm=0 / deadzone=21,11 / fast_pskip=0 / chroma_qp_offset=-2 / threads=17 / lookahead_threads=1 / sliced_threads=0 / nr=0 / decimate=1 / interlaced=0 / bluray_compat=0 / constrained_intra=0 / bframes=3 / b_pyramid=2 / b_adapt=2 / b_bias=0 / direct=3 / weightb=1 / open_gop=0 / weightp=2 / keyint=250 / keyint_min=23 / scenecut=40 / intra_refresh=0 / rc_lookahead=60 / rc=crf / mbtree=1 / crf=17.0 / qcomp=0.60 / qpmin=0 / qpmax=69 / qpstep=4 / ip_ratio=1.40 / aq=3:0.60
Default                                  : Yes
Forced                                   : No
Color range                              : Limited
Matrix coefficients                      : BT.709

Audio
ID                                       : 2
Format                                   : FLAC
Format/Info                              : Free Lossless Audio Codec
Codec ID                                 : A_FLAC
Duration                                 : 1 h 28 min
Bit rate mode                            : Variable
Bit rate                                 : 309 kb/s
Channel(s)                               : 1 channel
Channel layout                           : C
Sampling rate                            : 48.0 kHz
Frame rate                               : 11.719 FPS (4096 SPF)
Bit depth                                : 16 bits
Compression mode                         : Lossless
Stream size                              : 195 MiB (5%)
Writing library                          : libFLAC 1.2.1 (UTC 2007-09-17)
Language                                 : English
Default                                  : Yes
Forced                                   : No

Text
ID                                       : 3
Format                                   : PGS
Muxing mode                              : zlib
Codec ID                                 : S_HDMV/PGS
Codec ID/Info                            : Picture based subtitle format used on BDs/HD-DVDs
Duration                                 : 1 h 25 min
Bit rate                                 : 29.5 kb/s
Count of elements                        : 1559
Stream size                              : 18.0 MiB (0%)
Language                                 : German
Default                                  : No
Forced                                   : No

Menu
00:00:00.000                             : en:00:00:00.000
00:06:23.300                             : en:00:06:23.300
00:10:39.681                             : en:00:10:39.681
00:17:03.856                             : en:00:17:03.856
00:27:03.622                             : en:00:27:03.622
00:36:16.966                             : en:00:36:16.966
00:43:23.768                             : en:00:43:23.768
00:51:19.034                             : en:00:51:19.034
00:58:58.910                             : en:00:58:58.910
01:05:15.286                             : en:01:05:15.286
01:13:34.410                             : en:01:13:34.410
01:19:56.458                             : en:01:19:56.458

e35312fd3e2f2f977cc2298d1e7ea4ec.jpg





                                                                                                                                                                                                        
                                                                                                                                                                                                                                                                                                                                                                                                                                                                                                                                                                                                                                                                                                                                                                                                                                                        
4123734de9f26e870b255e549030bb32.torrent (21.22 KB, 下载次数: 0)

回复

使用道具 举报

小黑屋|西西论坛

本网站所有资源来自网络,如无意中侵犯了您的权益,请发邮件至 [email protected],立即清除相关链接

GMT+8, 2021-12-3 15:47 , Processed in 0.130962 second(s), 17 queries .

Powered by Discuz! X3.2

© 2001-2013 Comsenz Inc.

快速回复 返回顶部 返回列表