西西论坛

 找回密码
 立即注册
搜索

不义联盟:人间之神/不义联盟 Injustice.2021.720p.BluRay.x264-GUACAMOLE 1.44GB ... ...

[复制链接]
admin 发表于 2021-11-15 09:34:10 | 显示全部楼层 |阅读模式
不义联盟:人间之神/不义联盟 Injustice.2021.720p.BluRay.x264-GUACAMOLE 1.44GB                                                                                                                                                                                                                                                                                                                                                                                                                                                                                                                                        -->
帖子完整标题:不义联盟:人间之神/不义联盟 Injustice.2021.720p.BluRay.x264-GUACAMOLE 1.44GB



972ac31369923e6a793e95940747c87f.jpg



◎译  名 不义联盟:人间之神/不义联盟
◎片  名 Injustice
◎年  代 2021
◎产  地 美国
◎类  别 剧情 / 奇幻 / 冒险
◎语  言 英语
◎上映日期 2021-10-09(美国)
◎豆瓣评分 4.6/10 from 1784 users
◎豆瓣链接 
◎片  长 78分钟
◎导  演 马特·皮特斯 Matt Peters
◎编  剧 汤姆·泰勒 Tom Taylor
◎主  演 吉莉安·雅各布斯 Gillian Jacobs
       安松·蒙特 Anson Mount
       劳拉·贝莉 Laura Bailey
       贾斯汀·哈特雷 Justin Hartley
       珍妮特·瓦尼 Janet Varney
       奥利弗·赫斯顿 Oliver Hudson
       弗雷德·塔特西奥 Fred Tatasciore
       布兰登·迈克尔·霍尔 Brandon Micheal Hall
       布莱恩·T·德莱尼 Brian T. Delaney
       扎克·卡利森 Zach Callison

◎标  签 DC | 动画 | 超级英雄 | 美国 | 2021 | 科幻 | 超人 | 动作

◎简  介

  在另一个地球上,小丑使诈让超人杀死了露易丝·莱恩,致使英雄狂暴。
  
  超人决定控制地球,蝙蝠侠和他的盟友不得不试图阻止他。
Video
ID                                       : 1
Format                                   : AVC
Format/Info                              : Advanced Video Codec
Format profile                           : [email protected]
Format settings                          : CABAC / 8 Ref Frames
Format settings, CABAC                   : Yes
Format settings, Reference frames        : 8 frames
Codec ID                                 : V_MPEG4/ISO/AVC
Duration                                 : 1 h 18 min
Bit rate                                 : 1 863 kb/s
Width                                    : 1 280 pixels
Height                                   : 720 pixels
Display aspect ratio                     : 16:9
Frame rate mode                          : Constant
Frame rate                               : 23.976 (24000/1001/189150) FPS
Color space                              : YUV
Chroma subsampling                       : 4:2:0
Bit depth                                : 8 bits
Scan type                                : Progressive
Bits/(Pixel*Frame)                       : 0.084
Stream size                              : 1.02 GiB (71%)
Writing library                          : x264 core 164 r3075 66a5bc1
Encoding settings                        : cabac=1 / ref=8 / deblock=1:1:1 / analyse=0x3:0x133 / me=umh / subme=9 / psy=1 / psy_rd=0.40:0.00 / mixed_ref=1 / me_range=16 / chroma_me=1 / trellis=2 / 8x8dct=1 / cqm=0 / deadzone=21,11 / fast_pskip=0 / chroma_qp_offset=-2 / threads=22 / lookahead_threads=1 / sliced_threads=0 / nr=0 / decimate=1 / interlaced=0 / bluray_compat=0 / constrained_intra=0 / bframes=3 / b_pyramid=2 / b_adapt=2 / b_bias=0 / direct=3 / weightb=1 / open_gop=0 / weightp=2 / keyint=250 / keyint_min=23 / scenecut=40 / intra_refresh=0 / rc_lookahead=60 / rc=crf / mbtree=1 / crf=17.0 / qcomp=0.60 / qpmin=0 / qpmax=69 / qpstep=4 / ip_ratio=1.40 / aq=3:0.40
Default                                  : Yes
Forced                                   : No
Color range                              : Limited
Matrix coefficients                      : BT.709

Audio
ID                                       : 2
Format                                   : AC-3
Format/Info                              : Audio Coding 3
Commercial name                          : Dolby Digital
Codec ID                                 : A_AC3
Duration                                 : 1 h 18 min
Bit rate mode                            : Constant
Bit rate                                 : 640 kb/s
Channel(s)                               : 6 channels
Channel layout                           : L R C LFE Ls Rs
Sampling rate                            : 48.0 kHz
Frame rate                               : 31.250 FPS (1536 SPF)
Compression mode                         : Lossy
Stream size                              : 360 MiB (24%)
Language                                 : English
Service kind                             : Complete Main
Default                                  : Yes
Forced                                   : No

Text #1
ID                                       : 3
Format                                   : PGS
Muxing mode                              : zlib
Codec ID                                 : S_HDMV/PGS
Codec ID/Info                            : Picture based subtitle format used on BDs/HD-DVDs
Duration                                 : 1 h 14 min
Bit rate                                 : 41.6 kb/s
Count of elements                        : 2618
Stream size                              : 22.3 MiB (2%)
Language                                 : English
Default                                  : No
Forced                                   : No

Text #2
ID                                       : 4
Format                                   : PGS
Muxing mode                              : zlib
Codec ID                                 : S_HDMV/PGS
Codec ID/Info                            : Picture based subtitle format used on BDs/HD-DVDs
Duration                                 : 1 h 14 min
Bit rate                                 : 50.7 kb/s
Count of elements                        : 2678
Stream size                              : 27.2 MiB (2%)
Language                                 : German
Default                                  : No
Forced                                   : No

Text #3
ID                                       : 5
Format                                   : PGS
Muxing mode                              : zlib
Codec ID                                 : S_HDMV/PGS
Codec ID/Info                            : Picture based subtitle format used on BDs/HD-DVDs
Duration                                 : 1 h 17 min
Bit rate                                 : 39.1 kb/s
Count of elements                        : 2238
Stream size                              : 21.6 MiB (1%)
Language                                 : French
Default                                  : No
Forced                                   : No

Text #4
ID                                       : 6
Format                                   : PGS
Muxing mode                              : zlib
Codec ID                                 : S_HDMV/PGS
Codec ID/Info                            : Picture based subtitle format used on BDs/HD-DVDs
Duration                                 : 1 h 15 min
Bit rate                                 : 44.4 kb/s
Count of elements                        : 2690
Stream size                              : 23.8 MiB (2%)
Language                                 : Italian
Default                                  : No
Forced                                   : No

Text #5
ID                                       : 7
Format                                   : PGS
Muxing mode                              : zlib
Codec ID                                 : S_HDMV/PGS
Codec ID/Info                            : Picture based subtitle format used on BDs/HD-DVDs
Duration                                 : 1 h 17 min
Bit rate                                 : 37.2 kb/s
Count of elements                        : 2236
Stream size                              : 20.5 MiB (1%)
Language                                 : Dutch
Default                                  : No
Forced                                   : No

Text #6
ID                                       : 8
Format                                   : PGS
Muxing mode                              : zlib
Codec ID                                 : S_HDMV/PGS
Codec ID/Info                            : Picture based subtitle format used on BDs/HD-DVDs
Duration                                 : 1 h 14 min
Bit rate                                 : 36.1 kb/s
Count of elements                        : 2142
Stream size                              : 19.3 MiB (1%)
Language                                 : Spanish
Default                                  : No
Forced                                   : No

Text #7
ID                                       : 9
Format                                   : PGS
Muxing mode                              : zlib
Codec ID                                 : S_HDMV/PGS
Codec ID/Info                            : Picture based subtitle format used on BDs/HD-DVDs
Duration                                 : 1 h 17 min
Bit rate                                 : 34.2 kb/s
Count of elements                        : 2244
Stream size                              : 18.9 MiB (1%)
Language                                 : Danish
Default                                  : No
Forced                                   : No

Text #8
ID                                       : 10
Format                                   : PGS
Muxing mode                              : zlib
Codec ID                                 : S_HDMV/PGS
Codec ID/Info                            : Picture based subtitle format used on BDs/HD-DVDs
Duration                                 : 1 h 17 min
Bit rate                                 : 37.0 kb/s
Count of elements                        : 2246
Stream size                              : 20.4 MiB (1%)
Language                                 : Finnish
Default                                  : No
Forced                                   : No

Text #9
ID                                       : 11
Format                                   : PGS
Muxing mode                              : zlib
Codec ID                                 : S_HDMV/PGS
Codec ID/Info                            : Picture based subtitle format used on BDs/HD-DVDs
Duration                                 : 1 h 17 min
Bit rate                                 : 35.0 kb/s
Count of elements                        : 2242
Stream size                              : 19.3 MiB (1%)
Language                                 : Norwegian
Default                                  : No
Forced                                   : No

Text #10
ID                                       : 12
Format                                   : PGS
Muxing mode                              : zlib
Codec ID                                 : S_HDMV/PGS
Codec ID/Info                            : Picture based subtitle format used on BDs/HD-DVDs
Duration                                 : 1 h 17 min
Bit rate                                 : 35.9 kb/s
Count of elements                        : 2246
Stream size                              : 19.8 MiB (1%)
Language                                 : Swedish
Default                                  : No
Forced                                   : No

Text #11
ID                                       : 13
Format                                   : PGS
Muxing mode                              : zlib
Codec ID                                 : S_HDMV/PGS
Codec ID/Info                            : Picture based subtitle format used on BDs/HD-DVDs
Duration                                 : 1 h 0 min
Bit rate                                 : 870 b/s
Count of elements                        : 42
Stream size                              : 388 KiB (0%)
Language                                 : French
Default                                  : No
Forced                                   : No

Text #12
ID                                       : 14
Format                                   : PGS
Muxing mode                              : zlib
Codec ID                                 : S_HDMV/PGS
Codec ID/Info                            : Picture based subtitle format used on BDs/HD-DVDs
Duration                                 : 1 h 2 min
Bit rate                                 : 1 103 b/s
Count of elements                        : 48
Stream size                              : 506 KiB (0%)
Language                                 : Italian
Default                                  : No
Forced                                   : No

Text #13
ID                                       : 15
Format                                   : PGS
Muxing mode                              : zlib
Codec ID                                 : S_HDMV/PGS
Codec ID/Info                            : Picture based subtitle format used on BDs/HD-DVDs
Duration                                 : 1 s 836 ms
Bit rate                                 : 89.3 kb/s
Count of elements                        : 2
Stream size                              : 20.0 KiB (0%)
Language                                 : Spanish
Default                                  : No
Forced                                   : No

Menu
00:00:00.000                             : en:00:00:00.000
00:02:32.986                             : en:00:02:32.986
00:11:20.430                             : en:00:11:20.430
00:18:43.956                             : en:00:18:43.956
00:25:14.847                             : en:00:25:14.847
00:33:41.519                             : en:00:33:41.519
00:43:12.465                             : en:00:43:12.465
00:52:17.092                             : en:00:52:17.092
01:00:00.972                             : en:01:00:00.972
01:09:52.271                             : en:01:09:52.271
01:15:57.303                             : en:01:15:57.303

047ea8b4bc9d41e42213889fa3467ed6.jpg





                                                                                                                                                                                                        
                                                                                                                                                                                                                                                                                                                                                                                                                                                                                                                                                                                                                                                                                                                                                                                                                                                        
90246ed416468f523be16aee69944cfd.torrent (15.07 KB, 下载次数: 0)

回复

使用道具 举报

小黑屋|西西论坛

本网站所有资源来自网络,如无意中侵犯了您的权益,请发邮件至 [email protected],立即清除相关链接

GMT+8, 2021-12-3 15:38 , Processed in 0.149027 second(s), 17 queries .

Powered by Discuz! X3.2

© 2001-2013 Comsenz Inc.

快速回复 返回顶部 返回列表