西西论坛

 找回密码
 立即注册
搜索

怪兽俱乐部 Monsters.Club.2011.720p.BluRay.x264-BiPOLAR 3.81GB

[复制链接]
admin 发表于 2021-11-13 09:32:17 | 显示全部楼层 |阅读模式
怪兽俱乐部 Monsters.Club.2011.720p.BluRay.x264-BiPOLAR 3.81GB                                                                                                                                                                                                                                                                                                                                                                                                                                                                                                                                        -->
帖子完整标题:怪兽俱乐部 Monsters.Club.2011.720p.BluRay.x264-BiPOLAR 3.81GB



87e26c821342fa97e087cd195e5bffe3.jpg



◎译  名 怪兽俱乐部/Monsters Club
◎片  名 モンスターズクラブ
◎年  代 2011
◎产  地 日本
◎类  别 剧情
◎语  言 日语
◎上映日期 2011-09-10(多伦多电影节) / 2012-04-21(日本)
◎豆瓣评分 6.6/10 from 355 users
◎豆瓣链接 
◎片  长 71分钟
◎导  演 丰田利晃 Toyoda Toshiaki
◎编  剧 丰田利晃 Toyoda Toshiaki
◎主  演 永山瑛太 Eita
       洼冢洋介 Y?suke Kubozuka
       松田美由纪 Miyuki Matsuda
       国村隼 Jun Kunimura
       草刈麻有 Mayuu Kusakari
       涩川清彦 Kiyohiko Shibukawa

◎标  签 瑛太 | 日本 | 日本电影 | 窪塚洋介 | 洼冢洋介 | 日影 | 2011 | 豊田利晃

◎简  介

  出生于富裕资本家家庭的垣内良一(瑛太 饰)自幼养尊处优,父亲(国村隼 饰)病故后,继承了家族企业的长兄勇气(窪塚洋介 饰)步入深山老林,举枪自杀。此后母亲(松田美由纪 饰)郁郁而终,弟弟健太(KenKen 饰)飚车身亡。良一一夜之间从天堂跌落地狱,世间只留他和妹妹美香奈(草刈麻有 饰)二人。在此之后,良一带着父亲的遗产隐居哥哥建造于山中的木屋中,白雪皑皑,与世隔绝,良一耐心制造一枚枚小型炸弹,有感于产业社会对人们自由和天性的奴役,他决心以暴力形式推翻现有体制。在这疏离边缘之所在,勇气和健太的鬼魂交替出现在良一的面前,引导着他朝向悲剧宿命的终点行进……
  
  本片根据20世纪70年代震惊全美的连环炸弹袭击者西奥多·约翰·卡钦斯基(Ted Kaczynski)的事件改编。
Video
ID                                       : 1
Format                                   : AVC
Format/Info                              : Advanced Video Codec
Format profile                           : [email protected]
Format settings                          : CABAC / 11 Ref Frames
Format settings, CABAC                   : Yes
Format settings, Reference frames        : 11 frames
Codec ID                                 : V_MPEG4/ISO/AVC
Duration                                 : 1 h 12 min
Bit rate                                 : 6 807 kb/s
Width                                    : 1 280 pixels
Height                                   : 546 pixels
Display aspect ratio                     : 2.35:1
Frame rate mode                          : Constant
Frame rate                               : 23.976 (24000/1001/189150) FPS
Color space                              : YUV
Chroma subsampling                       : 4:2:0
Bit depth                                : 8 bits
Scan type                                : Progressive
Bits/(Pixel*Frame)                       : 0.406
Stream size                              : 3.44 GiB (90%)
Writing library                          : x264 core 164 r3075 66a5bc1
Encoding settings                        : cabac=1 / ref=11 / deblock=1:-3:-3 / analyse=0x3:0x133 / me=umh / subme=10 / psy=1 / psy_rd=1.00:0.15 / mixed_ref=1 / me_range=24 / chroma_me=1 / trellis=2 / 8x8dct=1 / cqm=0 / deadzone=21,11 / fast_pskip=1 / chroma_qp_offset=-3 / threads=17 / lookahead_threads=2 / sliced_threads=0 / nr=0 / decimate=1 / interlaced=0 / bluray_compat=0 / constrained_intra=0 / bframes=8 / b_pyramid=2 / b_adapt=2 / b_bias=0 / direct=3 / weightb=1 / open_gop=0 / weightp=2 / keyint=250 / keyint_min=23 / scenecut=40 / intra_refresh=0 / rc_lookahead=60 / rc=crf / mbtree=1 / crf=16.0 / qcomp=0.60 / qpmin=0 / qpmax=69 / qpstep=4 / ip_ratio=1.40 / aq=3:0.50
Language                                 : English
Default                                  : Yes
Forced                                   : No
Color range                              : Limited
Matrix coefficients                      : BT.709

Audio #1
ID                                       : 2
Format                                   : FLAC
Format/Info                              : Free Lossless Audio Codec
Codec ID                                 : A_FLAC
Duration                                 : 1 h 12 min
Bit rate mode                            : Variable
Bit rate                                 : 605 kb/s
Channel(s)                               : 2 channels
Channel layout                           : L R
Sampling rate                            : 48.0 kHz
Frame rate                               : 11.719 FPS (4096 SPF)
Bit depth                                : 24 bits
Compression mode                         : Lossless
Stream size                              : 313 MiB (8%)
Writing library                          : libFLAC 1.2.1 (UTC 2007-09-17)
Language                                 : Japanese
Default                                  : Yes
Forced                                   : No

Audio #2
ID                                       : 3
Format                                   : AAC LC
Format/Info                              : Advanced Audio Codec Low Complexity
Codec ID                                 : A_AAC-2
Duration                                 : 1 h 12 min
Bit rate                                 : 118 kb/s
Channel(s)                               : 2 channels
Channel layout                           : L R
Sampling rate                            : 48.0 kHz
Frame rate                               : 46.875 FPS (1024 SPF)
Compression mode                         : Lossy
Delay relative to video                  : 9 ms
Stream size                              : 61.0 MiB (2%)
Title                                    : English Commentary by Jasper Sharp
Language                                 : English
Default                                  : No
Forced                                   : No

Text #1
ID                                       : 4
Format                                   : UTF-8
Codec ID                                 : S_TEXT/UTF8
Codec ID/Info                            : UTF-8 Plain Text
Duration                                 : 1 h 7 min
Bit rate                                 : 27 b/s
Count of elements                        : 418
Stream size                              : 13.5 KiB (0%)
Title                                    : English
Language                                 : English
Default                                  : Yes
Forced                                   : Yes

Text #2
ID                                       : 5
Format                                   : PGS
Muxing mode                              : zlib
Codec ID                                 : S_HDMV/PGS
Codec ID/Info                            : Picture based subtitle format used on BDs/HD-DVDs
Duration                                 : 1 h 7 min
Bit rate                                 : 14.6 kb/s
Count of elements                        : 802
Stream size                              : 7.05 MiB (0%)
Title                                    : English
Language                                 : English
Default                                  : No
Forced                                   : No

Menu
00:00:00.000                             : en:00:00:00.000
00:06:06.157                             : en:00:06:06.157
00:13:31.352                             : en:00:13:31.352
00:16:37.330                             : en:00:16:37.330
00:25:30.487                             : en:00:25:30.487
00:34:21.434                             : en:00:34:21.434
00:37:31.332                             : en:00:37:31.332
00:46:46.762                             : en:00:46:46.762
00:50:41.080                             : en:00:50:41.080
00:56:41.356                             : en:00:56:41.356
01:00:46.768                             : en:01:00:46.768
01:08:16.050                             : en:01:08:16.050

dfa4a62d5c9f557e13e9438a08442be0.jpg





                                                                                                                                                                                                        
                                                                                                                                                                                                                                                                                                                                                                                                                                                                                                                                                                                                                                                                                                                                                                                                                                                        
99dc3e30f6eb35410170815a68121681.torrent (19.78 KB, 下载次数: 0)

回复

使用道具 举报

小黑屋|西西论坛

本网站所有资源来自网络,如无意中侵犯了您的权益,请发邮件至 [email protected],立即清除相关链接

GMT+8, 2021-12-3 15:16 , Processed in 0.126670 second(s), 17 queries .

Powered by Discuz! X3.2

© 2001-2013 Comsenz Inc.

快速回复 返回顶部 返回列表