西西论坛

 找回密码
 立即注册
搜索

回忆录:异形起源故事/回异:异形诞生 Memory.The.Origins.of.Alien.2019.720p.BluRay.x ...

[复制链接]
admin 发表于 2021-11-13 09:32:13 | 显示全部楼层 |阅读模式
回忆录:异形起源故事/回异:异形诞生 Memory.The.Origins.of.Alien.2019.720p.BluRay.x264-JustWatch 1                                                                                                                                                                                                                                                                                                                                                                                                                                                                                                                                        -->
帖子完整标题:回忆录:异形起源故事/回异:异形诞生 Memory.The.Origins.of.Alien.2019.720p.BluRay.x264-JustWatch 1.95GB



692e178eab13f5caba60082bd487c385.jpg



◎译  名 回忆录:异形起源故事/回异:异形诞生(台)/异形的诞生(港)
◎片  名 Memory: The Origins of Alien
◎年  代 2019
◎产  地 美国,瑞士
◎类  别 纪录片
◎语  言 英语
◎上映日期 2019-01-24(圣丹斯电影节) / 2019-10-04(美国)
◎豆瓣评分 7.7/10 from 1892 users
◎豆瓣链接 
◎片  长 95分钟(圣丹斯电影节)
◎导  演 亚历山大·欧-菲利普 Alexandre O. Philippe
◎编  剧 亚历山大·欧-菲利普 Alexandre O. Philippe
◎主  演 维罗尼卡·卡维特 Veronica Cartwright
       罗杰·克里斯蒂安 Roger Christian
       罗杰·科曼 Roger Corman
       戴安娜·奥班农 Diane O'Bannon
       特里·罗林斯 Terry Rawlings
       罗纳德·舒塞特 Ronald Shusett
       汤姆·斯凯里特 Tom Skerritt
       阿克塞尔·卡罗琳 Axelle Carolyn
       米奇·费奇 Mickey Faerch

◎标  签 纪录片 | 异形 | 科幻 | 美国 | 2019 | 恐怖 | 纪录 | 惊悚

◎简  介

  2019年是经典科幻片《异形》上映40周年纪念。亚历山大·欧·菲利普倾心力作解密异形的源起。从最原始的构思和草图,以及丹·欧班农原初的29页剧本说起,探索佐杜洛夫斯基、寄生学、希腊与埃及神话、地下漫画的诸多影响。影片有着丰富的内容、深刻的探讨,是一场科幻电影迷不可错过的盛宴。
Video
ID                                       : 1
Format                                   : AVC
Format/Info                              : Advanced Video Codec
Format profile                           : [email protected]
Format settings                          : CABAC / 8 Ref Frames
Format settings, CABAC                   : Yes
Format settings, Reference frames        : 8 frames
Codec ID                                 : V_MPEG4/ISO/AVC
Duration                                 : 1 h 33 min
Bit rate                                 : 2 322 kb/s
Width                                    : 1 280 pixels
Height                                   : 536 pixels
Display aspect ratio                     : 2.40:1
Frame rate mode                          : Constant
Frame rate                               : 24.000 FPS
Color space                              : YUV
Chroma subsampling                       : 4:2:0
Bit depth                                : 8 bits
Scan type                                : Progressive
Bits/(Pixel*Frame)                       : 0.141
Stream size                              : 1.51 GiB (77%)
Writing library                          : x264 core 164 r3075 66a5bc1
Encoding settings                        : cabac=1 / ref=8 / deblock=1:-3:-3 / analyse=0x3:0x133 / me=umh / subme=9 / psy=1 / psy_rd=1.00:0.00 / mixed_ref=1 / me_range=16 / chroma_me=1 / trellis=2 / 8x8dct=1 / cqm=0 / deadzone=21,11 / fast_pskip=0 / chroma_qp_offset=-2 / threads=17 / lookahead_threads=1 / sliced_threads=0 / nr=0 / decimate=1 / interlaced=0 / bluray_compat=0 / constrained_intra=0 / bframes=3 / b_pyramid=2 / b_adapt=2 / b_bias=0 / direct=3 / weightb=1 / open_gop=0 / weightp=2 / keyint=250 / keyint_min=24 / scenecut=40 / intra_refresh=0 / rc_lookahead=60 / rc=crf / mbtree=1 / crf=17.0 / qcomp=0.60 / qpmin=0 / qpmax=69 / qpstep=4 / ip_ratio=1.40 / aq=1:1.00
Language                                 : English
Default                                  : Yes
Forced                                   : No

Audio
ID                                       : 2
Format                                   : AC-3
Format/Info                              : Audio Coding 3
Commercial name                          : Dolby Digital
Codec ID                                 : A_AC3
Duration                                 : 1 h 33 min
Bit rate mode                            : Constant
Bit rate                                 : 640 kb/s
Channel(s)                               : 6 channels
Channel layout                           : L R C LFE Ls Rs
Sampling rate                            : 48.0 kHz
Frame rate                               : 31.250 FPS (1536 SPF)
Compression mode                         : Lossy
Stream size                              : 426 MiB (21%)
Language                                 : English
Service kind                             : Complete Main
Default                                  : Yes
Forced                                   : No

Text #1
ID                                       : 3
Format                                   : UTF-8
Codec ID                                 : S_TEXT/UTF8
Codec ID/Info                            : UTF-8 Plain Text
Duration                                 : 53 s 875 ms
Bit rate                                 : 19 b/s
Count of elements                        : 5
Stream size                              : 129 Bytes (0%)
Title                                    : forced
Language                                 : English
Default                                  : Yes
Forced                                   : Yes

Text #2
ID                                       : 4
Format                                   : PGS
Muxing mode                              : zlib
Codec ID                                 : S_HDMV/PGS
Codec ID/Info                            : Picture based subtitle format used on BDs/HD-DVDs
Duration                                 : 53 s 875 ms
Bit rate                                 : 11.4 kb/s
Count of elements                        : 10
Stream size                              : 75.0 KiB (0%)
Title                                    : forced
Language                                 : English
Default                                  : No
Forced                                   : No

Text #3
ID                                       : 5
Format                                   : PGS
Muxing mode                              : zlib
Codec ID                                 : S_HDMV/PGS
Codec ID/Info                            : Picture based subtitle format used on BDs/HD-DVDs
Duration                                 : 1 h 25 min
Bit rate                                 : 60.4 kb/s
Count of elements                        : 2992
Stream size                              : 36.9 MiB (2%)
Language                                 : German
Default                                  : No
Forced                                   : No

Text #4
ID                                       : 6
Format                                   : PGS
Muxing mode                              : zlib
Codec ID                                 : S_HDMV/PGS
Codec ID/Info                            : Picture based subtitle format used on BDs/HD-DVDs
Duration                                 : 1 h 25 min
Bit rate                                 : 5 206 b/s
Count of elements                        : 282
Stream size                              : 3.18 MiB (0%)
Title                                    : forced
Language                                 : German
Default                                  : No
Forced                                   : No

Menu
00:00:00.000                             : en:Chapter 01
00:07:02.208                             : en:Chapter 02
00:14:57.375                             : en:Chapter 03
00:21:06.167                             : en:Chapter 04
00:27:39.333                             : en:Chapter 05
00:35:14.500                             : en:Chapter 06
00:42:46.500                             : en:Chapter 07
00:48:54.083                             : en:Chapter 08
00:57:12.708                             : en:Chapter 09
01:03:11.375                             : en:Chapter 10
01:12:10.500                             : en:Chapter 11
01:19:34.292                             : en:Chapter 12
01:27:51.667                             : en:Chapter 13

e7c5cff5cfe10a0d6f69a146225ea520.jpg





                                                                                                                                                                                                        
                                                                                                                                                                                                                                                                                                                                                                                                                                                                                                                                                                                                                                                                                                                                                                                                                                                        
7975136bdbf91fb7ca3d202f210304c3.torrent (20.28 KB, 下载次数: 0)

回复

使用道具 举报

小黑屋|西西论坛

本网站所有资源来自网络,如无意中侵犯了您的权益,请发邮件至 [email protected],立即清除相关链接

GMT+8, 2021-12-3 15:32 , Processed in 0.096694 second(s), 17 queries .

Powered by Discuz! X3.2

© 2001-2013 Comsenz Inc.

快速回复 返回顶部 返回列表