西西论坛

 找回密码
 立即注册
搜索

破坏之日 The.Day.of.Destruction.2020.720p.BluRay.x264-BiPOLAR 1.72GB

[复制链接]
admin 发表于 2021-11-13 09:32:03 | 显示全部楼层 |阅读模式
破坏之日 The.Day.of.Destruction.2020.720p.BluRay.x264-BiPOLAR 1.72GB                                                                                                                                                                                                                                                                                                                                                                                                                                                                                                                                        -->
帖子完整标题:破坏之日 The.Day.of.Destruction.2020.720p.BluRay.x264-BiPOLAR 1.72GB



ffff18a71353b952190c4ab51c4e0b7d.jpg



◎译  名 破坏之日
◎片  名 破壊の日
◎年  代 2020
◎产  地 日本
◎类  别 剧情 / 恐怖
◎语  言 日语
◎上映日期 2020-07-24(日本)
◎豆瓣评分 6.0/10 from 165 users
◎豆瓣链接 
◎片  长 57分钟
◎导  演 丰田利晃 Toyoda Toshiaki
◎主  演 涩川清彦 Kiyohiko Shibukawa
       尾形一成 Issei Ogata
       松田龙平 Ry?hei Matsuda
       长泽树 Itsuki Nagasawa
       大西信满 SHIMA OHNISHI
       和田光沙 Misa Wada
       洼冢洋介 Y?suke Kubozuka

◎标  签 日本 | 松田龙平 | 丰田利晃 | 日本电影 | 2020 | 电影 | 涩川清彦 | 洼冢洋介

◎简  介

  在7年前在煤矿深处发现了不明身份的怪物的乡下小镇,疫病的传言流传开来,在心脏病患者新增的过程中,修验道者的年轻人贤一失踪了。贤一是活生生的木乃伊,为了拯救这个世界而进行的终极修行,就变成了神佛。然后,贤一醒过来说:“祓除被妖怪附身的世界。”
Video
ID                                       : 1
Format                                   : AVC
Format/Info                              : Advanced Video Codec
Format profile                           : [email protected]
Format settings                          : CABAC / 9 Ref Frames
Format settings, CABAC                   : Yes
Format settings, Reference frames        : 9 frames
Codec ID                                 : V_MPEG4/ISO/AVC
Duration                                 : 56 min 50 s
Bit rate                                 : 2 788 kb/s
Width                                    : 1 280 pixels
Height                                   : 694 pixels
Display aspect ratio                     : 1.85:1
Frame rate mode                          : Constant
Frame rate                               : 23.976 (24000/1001/189150) FPS
Color space                              : YUV
Chroma subsampling                       : 4:2:0
Bit depth                                : 8 bits
Scan type                                : Progressive
Bits/(Pixel*Frame)                       : 0.131
Stream size                              : 1.11 GiB (64%)
Writing library                          : x264 core 164 r3075 66a5bc1
Encoding settings                        : cabac=1 / ref=9 / deblock=1:-3:-3 / analyse=0x3:0x133 / me=umh / subme=10 / psy=1 / psy_rd=1.00:0.15 / mixed_ref=1 / me_range=24 / chroma_me=1 / trellis=2 / 8x8dct=1 / cqm=0 / deadzone=21,11 / fast_pskip=1 / chroma_qp_offset=-3 / threads=18 / lookahead_threads=3 / sliced_threads=0 / nr=0 / decimate=1 / interlaced=0 / bluray_compat=0 / constrained_intra=0 / bframes=8 / b_pyramid=2 / b_adapt=2 / b_bias=0 / direct=3 / weightb=1 / open_gop=0 / weightp=2 / keyint=250 / keyint_min=23 / scenecut=40 / intra_refresh=0 / rc_lookahead=60 / rc=crf / mbtree=1 / crf=16.0 / qcomp=0.60 / qpmin=0 / qpmax=69 / qpstep=4 / ip_ratio=1.40 / aq=3:0.60
Language                                 : English
Default                                  : Yes
Forced                                   : No
Color range                              : Limited
Matrix coefficients                      : BT.709

Audio
ID                                       : 2
Format                                   : FLAC
Format/Info                              : Free Lossless Audio Codec
Codec ID                                 : A_FLAC
Duration                                 : 56 min 51 s
Bit rate mode                            : Variable
Bit rate                                 : 1 522 kb/s
Channel(s)                               : 2 channels
Channel layout                           : L R
Sampling rate                            : 48.0 kHz
Frame rate                               : 11.719 FPS (4096 SPF)
Bit depth                                : 24 bits
Compression mode                         : Lossless
Stream size                              : 619 MiB (35%)
Writing library                          : libFLAC 1.2.1 (UTC 2007-09-17)
Language                                 : Japanese
Default                                  : Yes
Forced                                   : No

Text #1
ID                                       : 3
Format                                   : UTF-8
Codec ID                                 : S_TEXT/UTF8
Codec ID/Info                            : UTF-8 Plain Text
Duration                                 : 55 min 28 s
Bit rate                                 : 24 b/s
Count of elements                        : 331
Stream size                              : 9.78 KiB (0%)
Title                                    : English
Language                                 : English
Default                                  : Yes
Forced                                   : Yes

Text #2
ID                                       : 4
Format                                   : PGS
Muxing mode                              : zlib
Codec ID                                 : S_HDMV/PGS
Codec ID/Info                            : Picture based subtitle format used on BDs/HD-DVDs
Duration                                 : 55 min 28 s
Bit rate                                 : 13.3 kb/s
Count of elements                        : 655
Stream size                              : 5.29 MiB (0%)
Title                                    : English
Language                                 : English
Default                                  : No
Forced                                   : No

Menu
00:00:00.000                             : en:00:00:00.000
00:09:58.431                             : en:00:09:58.431
00:14:47.095                             : en:00:14:47.095
00:20:47.288                             : en:00:20:47.288
00:25:09.341                             : en:00:25:09.341
00:32:12.264                             : en:00:32:12.264
00:38:07.327                             : en:00:38:07.327
00:44:31.252                             : en:00:44:31.252
00:51:41.724                             : en:00:51:41.724

ef202189c9db1d1a490954bee77fb2ef.jpg





                                                                                                                                                                                                        
                                                                                                                                                                                                                                                                                                                                                                                                                                                                                                                                                                                                                                                                                                                                                                                                                                                        
3ba90734763a06a57b61b03a9f16f9a2.torrent (17.93 KB, 下载次数: 0)

回复

使用道具 举报

小黑屋|西西论坛

本网站所有资源来自网络,如无意中侵犯了您的权益,请发邮件至 [email protected],立即清除相关链接

GMT+8, 2021-12-3 15:04 , Processed in 0.129094 second(s), 17 queries .

Powered by Discuz! X3.2

© 2001-2013 Comsenz Inc.

快速回复 返回顶部 返回列表