西西论坛

 找回密码
 立即注册
搜索

夏日爵士 Jazz.on.a.Summers.Day.1959.720p.BluRay.x264-DEV0 6.49GB

[复制链接]
admin 发表于 2021-11-12 09:31:36 | 显示全部楼层 |阅读模式
夏日爵士 Jazz.on.a.Summers.Day.1959.720p.BluRay.x264-DEV0 6.49GB                                                                                                                                                                                                                                                                                                                                                                                                                                                                                                                                        -->
帖子完整标题:夏日爵士 Jazz.on.a.Summers.Day.1959.720p.BluRay.x264-DEV0 6.49GB



e9a9f6c3642ec9f6b3ebc71fa62f6f7d.jpg



◎译  名 夏日爵士
◎片  名 Jazz on a Summer's Day
◎年  代 1959
◎产  地 美国
◎类  别 纪录片 / 音乐
◎语  言 英语
◎上映日期 1960-03-28(美国)
◎豆瓣评分 9.1/10 from 255 users
◎豆瓣链接 
◎片  长 85 分钟
◎导  演 阿拉姆·阿瓦基安 Aram Avakian / 伯特·斯特恩 Bert Stern
◎编  剧 阿诺德·珀尔 Arnold Perl
◎主  演 路易斯·阿姆斯特朗 Louis Armstrong
       Mahalia Jackson Mahalia Jackson
       查克  贝里 Chuck Berry
       Jack Teagarden Jack Teagarden
       Sal Salvador Sal Salvador
       Peanuts Hucko Peanuts Hucko
       黛娜·华盛顿 Dinah Washington
       Big Maybelle Big Maybelle
       Sonny Stitt Sonny Stitt
       Armando Peraza Armando Peraza
       安妮塔·奥黛 Anita O'Day
       Urbie Green Urbie Green
       Danny Barcelona Danny Barcelona
       Chico Hamilton Chico Hamilton
       Gerry Mulligan Gerry Mulligan
       Terry Gibbs Terry Gibbs
       Patricia Bosworth Patricia Bosworth
       Art Farmer Art Farmer
       George Shearing George Shearing
       Eric Dolphy Eric Dolphy
       Henry Grimes Henry Grimes
       Bob Brookmeyer Bob Brookmeyer
       Jo Jones Jo Jones
       Jim Hall Jim Hall
       Buck Clayton Buck Clayton
       Jimmy Giuffre Jimmy Giuffre
       Max Roach Max Roach
       Willis Conover Willis Conover
       Thelonious Monk Thelonious Monk

◎标  签 纪录片 | 音乐 | 美国 | JAZZ | 爵士 | 1960s | Documentary | Live

◎简  介

  《夏日爵士》发生在1958年的纽波特爵士音乐节,由广告、时尚摄影师Bert Stern导演。
  
  电影中混合了波动的水面、城中演奏者与音乐节上的观众,此外还包括1958年美洲杯帆船赛的镜头。除了主持人Willis Conover偶尔的报幕外,这部电影几乎没有对话与讲解。
Video
ID                                       : 1
Format                                   : AVC
Format/Info                              : Advanced Video Codec
Format profile                           : [email protected]
Format settings                          : CABAC / 12 Ref Frames
Format settings, CABAC                   : Yes
Format settings, Reference frames        : 12 frames
Codec ID                                 : V_MPEG4/ISO/AVC
Duration                                 : 1 h 22 min
Bit rate                                 : 9 725 kb/s
Width                                    : 960 pixels
Height                                   : 720 pixels
Display aspect ratio                     : 4:3
Frame rate mode                          : Constant
Frame rate                               : 23.976 (24000/1001/189150) FPS
Color space                              : YUV
Chroma subsampling                       : 4:2:0
Bit depth                                : 8 bits
Scan type                                : Progressive
Bits/(Pixel*Frame)                       : 0.587
Stream size                              : 5.63 GiB (87%)
Writing library                          : x264 core 164 r3075 66a5bc1
Encoding settings                        : cabac=1 / ref=12 / deblock=1:-3:-3 / analyse=0x3:0x133 / me=umh / subme=10 / psy=1 / psy_rd=1.00:0.15 / mixed_ref=1 / me_range=24 / chroma_me=1 / trellis=2 / 8x8dct=1 / cqm=0 / deadzone=21,11 / fast_pskip=1 / chroma_qp_offset=-3 / threads=18 / lookahead_threads=3 / sliced_threads=0 / nr=0 / decimate=1 / interlaced=0 / bluray_compat=0 / constrained_intra=0 / bframes=8 / b_pyramid=2 / b_adapt=2 / b_bias=0 / direct=3 / weightb=1 / open_gop=0 / weightp=2 / keyint=250 / keyint_min=23 / scenecut=40 / intra_refresh=0 / rc_lookahead=60 / rc=crf / mbtree=1 / crf=17.0 / qcomp=0.60 / qpmin=0 / qpmax=69 / qpstep=4 / ip_ratio=1.40 / aq=3:0.50
Language                                 : English
Default                                  : Yes
Forced                                   : No

Audio #1
ID                                       : 2
Format                                   : FLAC
Format/Info                              : Free Lossless Audio Codec
Codec ID                                 : A_FLAC
Duration                                 : 1 h 22 min
Bit rate mode                            : Variable
Bit rate                                 : 1 338 kb/s
Channel(s)                               : 2 channels
Channel layout                           : L R
Sampling rate                            : 48.0 kHz
Frame rate                               : 11.719 FPS (4096 SPF)
Bit depth                                : 24 bits
Compression mode                         : Lossless
Stream size                              : 793 MiB (12%)
Writing library                          : libFLAC 1.2.1 (UTC 2007-09-17)
Language                                 : English
Default                                  : Yes
Forced                                   : No

Audio #2
ID                                       : 3
Format                                   : AAC LC
Format/Info                              : Advanced Audio Codec Low Complexity
Codec ID                                 : A_AAC-2
Duration                                 : 1 h 22 min
Bit rate                                 : 125 kb/s
Channel(s)                               : 2 channels
Channel layout                           : L R
Sampling rate                            : 48.0 kHz
Frame rate                               : 46.875 FPS (1024 SPF)
Compression mode                         : Lossy
Delay relative to video                  : 9 ms
Stream size                              : 74.4 MiB (1%)
Title                                    : English Commentary by Natalie Weiner
Language                                 : English
Default                                  : No
Forced                                   : No

Text #1
ID                                       : 4
Format                                   : UTF-8
Codec ID                                 : S_TEXT/UTF8
Codec ID/Info                            : UTF-8 Plain Text
Duration                                 : 1 h 19 min
Bit rate                                 : 33 b/s
Count of elements                        : 596
Stream size                              : 19.7 KiB (0%)
Title                                    : English
Language                                 : English
Default                                  : No
Forced                                   : No

Text #2
ID                                       : 5
Format                                   : UTF-8
Codec ID                                 : S_TEXT/UTF8
Codec ID/Info                            : UTF-8 Plain Text
Duration                                 : 1 h 21 min
Bit rate                                 : 35 b/s
Count of elements                        : 794
Stream size                              : 20.9 KiB (0%)
Title                                    : English SDH
Language                                 : English
Default                                  : No
Forced                                   : No

Text #3
ID                                       : 6
Format                                   : PGS
Muxing mode                              : zlib
Codec ID                                 : S_HDMV/PGS
Codec ID/Info                            : Picture based subtitle format used on BDs/HD-DVDs
Duration                                 : 1 h 21 min
Bit rate                                 : 9 284 b/s
Count of elements                        : 1588
Stream size                              : 5.40 MiB (0%)
Title                                    : English SDH
Language                                 : English
Default                                  : No
Forced                                   : No

Menu
00:00:00.000                             : en:00:00:00.000
00:07:47.300                             : en:00:07:47.300
00:17:23.501                             : en:00:17:23.501
00:26:19.787                             : en:00:26:19.787
00:32:52.220                             : en:00:32:52.220
00:39:06.844                             : en:00:39:06.844
00:46:53.519                             : en:00:46:53.519
00:57:12.262                             : en:00:57:12.262
01:10:08.996                             : en:01:10:08.996
01:16:41.847                             : en:01:16:41.847

7a6e5fee86df1a171007e862d84fc270.jpg





                                                                                                                                                                                                        
                                                                                                                                                                                                                                                                                                                                                                                                                                                                                                                                                                                                                                                                                                                                                                                                                                                        
c3d217aa411f9a62717a285e443f56d2.torrent (16.96 KB, 下载次数: 0)

回复

使用道具 举报

小黑屋|西西论坛

本网站所有资源来自网络,如无意中侵犯了您的权益,请发邮件至 [email protected],立即清除相关链接

GMT+8, 2021-12-3 15:40 , Processed in 0.134435 second(s), 17 queries .

Powered by Discuz! X3.2

© 2001-2013 Comsenz Inc.

快速回复 返回顶部 返回列表