西西论坛

 找回密码
 立即注册
搜索

米纳里 Minari.2020.720p.BluRay.x264-KNiVES 3.42GB

[复制链接]
admin 发表于 2021-11-12 09:31:30 | 显示全部楼层 |阅读模式
米纳里 Minari.2020.720p.BluRay.x264-KNiVES 3.42GB                                                                                                                                                                                                                                                                                                                                                                                                                                                                                                                                        -->
帖子完整标题:米纳里 Minari.2020.720p.BluRay.x264-KNiVES 3.42GB



c2f7ecf9bc4a416714709a0c0f9da3c6.jpg



◎译  名 米纳里/???/农情家园(港)/梦想之地(台)/水芹菜
◎片  名 Minari
◎年  代 2020
◎产  地 美国
◎类  别 剧情
◎语  言 韩语,英语
◎上映日期 2020-01-26(圣丹斯电影节) / 2021-02-12(美国) / 2021-02-26(美国网络)
◎豆瓣评分 7.3/10 from 20403 users
◎豆瓣链接 
◎片  长 115分钟
◎导  演 李·以萨克·郑 Lee Isaac Chung
◎编  剧 李·以萨克·郑 Lee Isaac Chung
◎主  演 史蒂文·元 Steven Yeun
       韩艺璃 Ye-ri Han
       达里尔·考克斯 Darryl Cox
       威尔·帕顿 Will Patton
       尹汝贞 Yeo-jeong Yoon
       蒂娜·帕克 Tina Parker
       斯科特·黑兹 Scott Haze
       艾伦·S·金 Alan S. Kim
        Laurie Cummings
       埃里克·斯达克 Eric Starkey
       伊瑟·文 Esther Moon
       诺尔·曹 Noel Cho

◎标  签 移民 | 韩国 | 美国 | 剧情 | 2020 | 种族 | 美国电影 | 圣丹斯电影节

◎简  介

  故事发生在20世纪80年代的美国,美籍韩裔男子雅各布(史蒂文·元 Steven Yeun 饰)带着妻子莫妮卡(韩艺璃 饰)和两个孩子大卫(Alan S. Kim 饰)、安妮(Noel Cho 饰)一起从熟悉的西海岸搬到了偏僻而又陌生的阿肯色州。虽然对于丈夫的这一决定,莫妮卡的心中十分的反对,但她拗不过雅各布的坚决和顽固,只得被迫夫唱妇随。
  
  蛮荒之地的生活既不舒适也不有趣,在最初的新鲜感过去之后,大卫和安妮很快就开始怀念起过去的生活了。之后,孩子们的外婆也来到了他们的身边,给这个家庭带来了一丝热闹的气息。雅各布没有发现的是,当他将越来越多的时间和精力投入到开发农场这件事情上时,他和妻子之间的距离就越来越远。

◎获奖情况

  第78届金球奖 ?(2021)
  电影类最佳外语片
  
  第74届英国电影学院奖 ?(2021)
  电影奖最佳导演(提名) 李·以萨克·郑
  电影奖最佳男配角(提名) 艾伦·S·金
  电影奖最佳女配角 尹汝贞
  电影奖最佳非英语片(提名)
  电影奖最佳原创配乐(提名)
  电影奖最佳选角(提名)
  
  第36届圣丹斯电影节 ?(2020)
  评审团大奖剧情片 李·以萨克·郑
  观众奖剧情片
  
  第73届美国导演工会奖 ?(2021)
  最佳电影导演(提名) 李·以萨克·郑
  
  第27届美国演员工会奖 ?(2021)
  电影奖最佳男主角(提名) 史蒂文·元
  电影奖最佳女配角 尹汝贞
  电影奖最佳群戏(提名)
  
  第32届美国制片人工会奖 ?(2021)
  最佳电影制片人奖(提名)
  
  第71届美国剪辑工会奖 ?(2021)
  剧情片最佳剪辑(提名) 哈里·尹
  
  第92届美国国家评论协会奖 ?(2020)
  最佳女配角 尹汝贞
  最佳原创剧本 李·以萨克·郑
  年度佳片
  
  第26届美国评论家选择电影奖 ?(2021)
  最佳影片(提名)
  最佳导演(提名) 李·以萨克·郑
  最佳男主角(提名) 史蒂文·元
  最佳女配角(提名) 尹汝贞
  最佳青少年演员 艾伦·S·金
  最佳群戏(提名)
  最佳外语片
  最佳原创剧本(提名) 李·以萨克·郑
  最佳摄影(提名) 拉克兰·米尔恩
  最佳配乐(提名) 埃米尔·莫塞利
  
  第36届美国独立精神奖 ?(2021)
  最佳影片(提名)
  最佳导演(提名) 李·以萨克·郑
  最佳男主角(提名) 史蒂文·元
  最佳女配角 尹汝贞
  最佳女配角(提名) 韩艺璃
  最佳剧本(提名)
  
  第30届哥谭独立电影奖 ?(2020)
  最佳女演员(提名) 尹汝贞
  
  第21届美国电影学会奖 ?(2020)
  年度佳片
  
  第25届金卫星奖 ?(2021)
  电影部门最佳剧情片(提名)
  电影部门最佳导演(提名) 李·以萨克·郑
  电影部门剧情片最佳男主角(提名) 史蒂文·元
  电影部门最佳女配角(提名) 尹汝贞
  电影部门最佳原创剧本(提名) 李·以萨克·郑
  电影部门最佳原创配乐(提名) 埃米尔·莫塞利
  电影部门最佳剪辑(提名) 哈里·尹
  
  第55届美国国家影评人协会奖 ?(2021)
  最佳女配角(提名) 尹汝贞
  
  第41届伦敦影评人协会奖 ?(2021)
  年度电影(提名)
  年度外语片(提名)
  
  第41届波士顿影评人协会奖 ?(2020)
  最佳女配角 尹汝贞
  最佳音乐 埃米尔·莫塞利
  最佳群像表演(提名)
  
  第46届洛杉矶影评人协会奖 ?(2020)
  最佳女配角 尹汝贞
  
  第33届芝加哥影评人协会奖 ?(2020)
  最佳男主角(提名) 史蒂文·元
  最佳女配角(提名) 尹汝贞
  最具突破导演(米洛斯·斯泰利克奖)(提名) 李·以萨克·郑
  
  第5届亚特兰大影评人协会奖 ?(2020)
  十佳影片
  最佳女配角(提名) 尹汝贞
  
  第24届美国在线影评人协会奖 ?(2021)
  最佳影片(提名)
  最佳男主角(提名) 史蒂文·元
  最佳女配角(提名) 尹汝贞
  最佳原创剧本(提名) 李·以萨克·郑
  最佳原创配乐(提名) 埃米尔·莫塞利
  最佳非英语片
Video
ID                                       : 1
Format                                   : AVC
Format/Info                              : Advanced Video Codec
Format profile                           : [email protected]
Format settings                          : CABAC / 8 Ref Frames
Format settings, CABAC                   : Yes
Format settings, Reference frames        : 8 frames
Codec ID                                 : V_MPEG4/ISO/AVC
Duration                                 : 1 h 55 min
Bit rate                                 : 3 555 kb/s
Width                                    : 1 280 pixels
Height                                   : 536 pixels
Display aspect ratio                     : 2.40:1
Frame rate mode                          : Constant
Frame rate                               : 23.976 (24000/1001/189150) FPS
Color space                              : YUV
Chroma subsampling                       : 4:2:0
Bit depth                                : 8 bits
Scan type                                : Progressive
Bits/(Pixel*Frame)                       : 0.216
Stream size                              : 2.88 GiB (84%)
Writing library                          : x264 core 164 r3075 66a5bc1
Encoding settings                        : cabac=1 / ref=8 / deblock=1:-3:-3 / analyse=0x3:0x133 / me=umh / subme=9 / psy=1 / psy_rd=1.00:0.00 / mixed_ref=1 / me_range=16 / chroma_me=1 / trellis=2 / 8x8dct=1 / cqm=0 / deadzone=21,11 / fast_pskip=0 / chroma_qp_offset=-2 / threads=17 / lookahead_threads=1 / sliced_threads=0 / nr=0 / decimate=1 / interlaced=0 / bluray_compat=0 / constrained_intra=0 / bframes=3 / b_pyramid=2 / b_adapt=2 / b_bias=0 / direct=3 / weightb=1 / open_gop=0 / weightp=2 / keyint=250 / keyint_min=23 / scenecut=40 / intra_refresh=0 / rc_lookahead=60 / rc=crf / mbtree=1 / crf=17.0 / qcomp=0.60 / qpmin=0 / qpmax=69 / qpstep=4 / ip_ratio=1.40 / aq=1:1.00
Language                                 : English
Default                                  : Yes
Forced                                   : No

Audio
ID                                       : 2
Format                                   : AC-3
Format/Info                              : Audio Coding 3
Commercial name                          : Dolby Digital
Codec ID                                 : A_AC3
Duration                                 : 1 h 55 min
Bit rate mode                            : Constant
Bit rate                                 : 640 kb/s
Channel(s)                               : 6 channels
Channel layout                           : L R C LFE Ls Rs
Sampling rate                            : 48.0 kHz
Frame rate                               : 31.250 FPS (1536 SPF)
Compression mode                         : Lossy
Stream size                              : 530 MiB (15%)
Language                                 : English
Service kind                             : Complete Main
Default                                  : Yes
Forced                                   : No

Text #1
ID                                       : 3
Format                                   : UTF-8
Codec ID                                 : S_TEXT/UTF8
Codec ID/Info                            : UTF-8 Plain Text
Duration                                 : 1 h 48 min
Bit rate                                 : 22 b/s
Count of elements                        : 696
Stream size                              : 18.0 KiB (0%)
Title                                    : forced
Language                                 : English
Default                                  : Yes
Forced                                   : Yes

Text #2
ID                                       : 4
Format                                   : PGS
Muxing mode                              : zlib
Codec ID                                 : S_HDMV/PGS
Codec ID/Info                            : Picture based subtitle format used on BDs/HD-DVDs
Duration                                 : 1 h 48 min
Bit rate                                 : 12.9 kb/s
Count of elements                        : 1392
Stream size                              : 10.0 MiB (0%)
Title                                    : forced
Language                                 : English
Default                                  : No
Forced                                   : No

Text #3
ID                                       : 5
Format                                   : PGS
Muxing mode                              : zlib
Codec ID                                 : S_HDMV/PGS
Codec ID/Info                            : Picture based subtitle format used on BDs/HD-DVDs
Duration                                 : 1 h 48 min
Bit rate                                 : 20.8 kb/s
Count of elements                        : 2318
Stream size                              : 16.2 MiB (0%)
Language                                 : English
Default                                  : No
Forced                                   : No

Text #4
ID                                       : 6
Format                                   : PGS
Muxing mode                              : zlib
Codec ID                                 : S_HDMV/PGS
Codec ID/Info                            : Picture based subtitle format used on BDs/HD-DVDs
Duration                                 : 1 h 52 min
Bit rate                                 : 21.2 kb/s
Count of elements                        : 2280
Stream size                              : 17.1 MiB (0%)
Language                                 : German
Default                                  : No
Forced                                   : No

Text #5
ID                                       : 7
Format                                   : PGS
Muxing mode                              : zlib
Codec ID                                 : S_HDMV/PGS
Codec ID/Info                            : Picture based subtitle format used on BDs/HD-DVDs
Duration                                 : 1 h 51 min
Bit rate                                 : 5 947 b/s
Count of elements                        : 638
Stream size                              : 4.76 MiB (0%)
Title                                    : forced
Language                                 : German
Default                                  : No
Forced                                   : No

Menu
00:00:00.000                             : en:Chapter 01
00:09:45.794                             : en:Chapter 02
00:19:56.320                             : en:Chapter 03
00:27:44.204                             : en:Chapter 04
00:36:01.659                             : en:Chapter 05
00:44:11.357                             : en:Chapter 06
00:55:15.854                             : en:Chapter 07
01:02:10.477                             : en:Chapter 08
01:15:16.345                             : en:Chapter 09
01:25:03.098                             : en:Chapter 10
01:32:18.992                             : en:Chapter 11
01:42:13.169                             : en:Chapter 12

5f9edd3bf53e3395d4f62a2042e5a9a3.jpg





                                                                                                                                                                                                        
                                                                                                                                                                                                                                                                                                                                                                                                                                                                                                                                                                                                                                                                                                                                                                                                                                                        
55950caa05379ff0157d3b8a3d196c37.torrent (17.79 KB, 下载次数: 0)

回复

使用道具 举报

小黑屋|西西论坛

本网站所有资源来自网络,如无意中侵犯了您的权益,请发邮件至 [email protected],立即清除相关链接

GMT+8, 2021-12-3 15:22 , Processed in 0.134970 second(s), 17 queries .

Powered by Discuz! X3.2

© 2001-2013 Comsenz Inc.

快速回复 返回顶部 返回列表