西西论坛

 找回密码
 立即注册
搜索

血行者 Bloodrunners.2017.720p.BluRay.x264-GETiT 3.19GB

[复制链接]
admin 发表于 2021-11-12 09:31:26 | 显示全部楼层 |阅读模式
血行者 Bloodrunners.2017.720p.BluRay.x264-GETiT 3.19GB                                                                                                                                                                                                                                                                                                                                                                                                                                                                                                                                        -->
帖子完整标题:血行者 Bloodrunners.2017.720p.BluRay.x264-GETiT 3.19GB



6853d72b1bb5547b55543968410fb6c7.jpg



◎译  名 血行者
◎片  名 Bloodrunners
◎年  代 2017
◎产  地 美国
◎类  别 动作 / 恐怖 / 犯罪
◎语  言 英语
◎上映日期 2017-03-03(美国)
◎豆瓣评分 /10 from 0 users
◎豆瓣链接 
◎片  长 99分钟
◎主  演 艾斯-T Ice-T
        Danny Doherty

◎标  签 美国 | 美国电影 | 犯罪 |  | 奇幻

◎简  介

  It's 1933 and prohibition has proven very profitable for corrupt cops like Jack Malone. He collects 'luxury tax' from every bootlegger and scofflaw in town. Shaking down the newly opened speakeasy should've been simple, but instead, Jack and his men uncover a clan of vampires hell bent on taking over the town.
Video
ID                                       : 1
Format                                   : AVC
Format/Info                              : Advanced Video Codec
Format profile                           : [email protected]
Format settings                          : CABAC / 8 Ref Frames
Format settings, CABAC                   : Yes
Format settings, Reference frames        : 8 frames
Codec ID                                 : V_MPEG4/ISO/AVC
Duration                                 : 1 h 35 min
Bit rate                                 : 4 140 kb/s
Width                                    : 1 280 pixels
Height                                   : 694 pixels
Display aspect ratio                     : 1.85:1
Frame rate mode                          : Constant
Frame rate                               : 24.000 FPS
Color space                              : YUV
Chroma subsampling                       : 4:2:0
Bit depth                                : 8 bits
Scan type                                : Progressive
Bits/(Pixel*Frame)                       : 0.194
Stream size                              : 2.76 GiB (87%)
Writing library                          : x264 core 164 r3075 66a5bc1
Encoding settings                        : cabac=1 / ref=8 / deblock=1:-3:-3 / analyse=0x3:0x133 / me=umh / subme=9 / psy=1 / psy_rd=1.00:0.00 / mixed_ref=1 / me_range=16 / chroma_me=1 / trellis=2 / 8x8dct=1 / cqm=0 / deadzone=21,11 / fast_pskip=0 / chroma_qp_offset=-2 / threads=22 / lookahead_threads=1 / sliced_threads=0 / nr=0 / decimate=1 / interlaced=0 / bluray_compat=0 / constrained_intra=0 / bframes=3 / b_pyramid=2 / b_adapt=2 / b_bias=0 / direct=3 / weightb=1 / open_gop=0 / weightp=2 / keyint=250 / keyint_min=24 / scenecut=40 / intra_refresh=0 / rc_lookahead=60 / rc=crf / mbtree=1 / crf=17.0 / qcomp=0.60 / qpmin=0 / qpmax=69 / qpstep=4 / ip_ratio=1.40 / aq=3:1.00
Default                                  : Yes
Forced                                   : No
Color range                              : Limited
Matrix coefficients                      : BT.709

Audio
ID                                       : 2
Format                                   : AC-3
Format/Info                              : Audio Coding 3
Commercial name                          : Dolby Digital
Codec ID                                 : A_AC3
Duration                                 : 1 h 35 min
Bit rate mode                            : Constant
Bit rate                                 : 640 kb/s
Channel(s)                               : 6 channels
Channel layout                           : L R C LFE Ls Rs
Sampling rate                            : 48.0 kHz
Frame rate                               : 31.250 FPS (1536 SPF)
Compression mode                         : Lossy
Stream size                              : 437 MiB (13%)
Language                                 : English
Service kind                             : Complete Main
Default                                  : Yes
Forced                                   : No

Text
ID                                       : 3
Format                                   : PGS
Muxing mode                              : zlib
Codec ID                                 : S_HDMV/PGS
Codec ID/Info                            : Picture based subtitle format used on BDs/HD-DVDs
Duration                                 : 1 h 32 min
Bit rate                                 : 74 b/s
Count of elements                        : 16
Stream size                              : 50.2 KiB (0%)
Language                                 : German
Default                                  : No
Forced                                   : No

Menu
00:00:00.000                             : en:00:00:00.000
00:10:33.875                             : en:00:10:33.875
00:19:06.875                             : en:00:19:06.875
00:30:51.292                             : en:00:30:51.292
00:43:01.458                             : en:00:43:01.458
00:50:38.917                             : en:00:50:38.917
01:04:01.167                             : en:01:04:01.167
01:14:41.875                             : en:01:14:41.875





                                                                                                                                                                                                        
                                                                                                                                                                                                                                                                                                                                                                                                                                                                                                                                                                                                                                                                                                                                                                                                                                                        
25f08a174bdb79bc4321c8f5cc4bcd8e.torrent (16.62 KB, 下载次数: 0)

回复

使用道具 举报

小黑屋|西西论坛

本网站所有资源来自网络,如无意中侵犯了您的权益,请发邮件至 [email protected],立即清除相关链接

GMT+8, 2021-12-3 15:49 , Processed in 0.118818 second(s), 17 queries .

Powered by Discuz! X3.2

© 2001-2013 Comsenz Inc.

快速回复 返回顶部 返回列表