西西论坛

 找回密码
 立即注册
搜索

淡淡的爱 A.Touch.of.Love.1969.1080p.BluRay.x264.DTS-FGT 9.76GB

[复制链接]
admin 发表于 6 天前 | 显示全部楼层 |阅读模式
淡淡的爱 A.Touch.of.Love.1969.1080p.BluRay.x264.DTS-FGT 9.76GB                                                                                                                                                                                                                                                                                                                                                                                                                                                                                                                                        -->
帖子完整标题:淡淡的爱 A.Touch.of.Love.1969.1080p.BluRay.x264.DTS-FGT 9.76GB



b74b40a00940f53baf6ec6ca78c68d40.jpg



◎译  名 淡淡的爱
◎片  名 A Touch of Love
◎年  代 1969
◎产  地 英国
◎类  别 剧情
◎语  言 英语
◎上映日期 1969-09(英国
◎片  长 107 分钟
◎导  演 瓦里丝·侯赛因 Waris Hussein
◎编  剧 玛格丽特·德拉布尔 Margaret Drabble
◎主  演 伊恩·麦克莱恩 Ian McKellen
       桑迪·丹尼斯 Sandy Dennis
       伊莲诺·布罗 Eleanor Bron
       约翰·斯坦丁 John Standing
       玛格丽特·提扎克 Margaret Tyzack
       Peggy Thorpe-Bates Peggy Thorpe-Bates
       罗杰·汉蒙德 Roger Hammond
       希拉·弗雷泽 Shelagh Fraser
       莫瑞斯·德纳姆 Maurice Denham
       Michael Coles Michael Coles
       瑞切尔·凯姆普森 Rachel Kempson

◎标  签 英国 | Sandy_Dennis | 英国电影 | 剧情 | McKellen | Ian | 金熊奖(提名) | 无资源

◎简  介

  She Has a Nice Job. And a Nice Baby. What More Could a Single Girl Want?

◎获奖情况

  第19届柏林国际电影节 ?(1969)
  金熊奖最佳影片(提名) 瓦里丝·侯赛因
Video
ID                                       : 1
Format                                   : AVC
Format/Info                              : Advanced Video Codec
Format profile                           :
Format settings                          : CABAC / 4 Ref Frames
Format settings, CABAC                   : Yes
Format settings, Reference frames        : 4 frames
Codec ID                                 : V_MPEG4/ISO/AVC
Duration                                 : 1 h 47 min
Bit rate                                 : 11.5 Mb/s
Width                                    : 1 796 pixels
Height                                   : 1 080 pixels
Display aspect ratio                     : 5:3
Frame rate mode                          : Constant
Frame rate                               : 24.000 FPS
Color space                              : YUV
Chroma subsampling                       : 4:2:0
Bit depth                                : 8 bits
Scan type                                : Progressive
Bits/(Pixel*Frame)                       : 0.247
Stream size                              : 8.63 GiB (88%)
Writing library                          : x264 core 148 r2795M aaa9aa8
Encoding settings                        : cabac=1 / ref=4 / deblock=1:-2:-2 / analyse=0x3:0x113 / me=umh / subme=9 / psy=1 / psy_rd=1.00:0.15 / mixed_ref=1 / me_range=16 / chroma_me=1 / trellis=2 / 8x8dct=1 / cqm=0 / deadzone=21,11 / fast_pskip=1 / chroma_qp_offset=-3 / threads=24 / lookahead_threads=3 / sliced_threads=0 / nr=0 / decimate=1 / interlaced=0 / bluray_compat=0 / constrained_intra=0 / bframes=3 / b_pyramid=2 / b_adapt=1 / b_bias=0 / direct=3 / weightb=1 / open_gop=0 / weightp=2 / keyint=250 / keyint_min=25 / scenecut=40 / intra_refresh=0 / rc_lookahead=50 / rc=2pass / mbtree=1 / bitrate=11500 / ratetol=1.0 / qcomp=0.60 / qpmin=0 / qpmax=69 / qpstep=4 / cplxblur=20.0 / qblur=0.5 / vbv_maxrate=31250 / vbv_bufsize=31250 / nal_hrd=none / filler=0 / ip_ratio=1.40 / aq=1:1.00
Language                                 : English
Default                                  : Yes
Forced                                   : No

Audio
ID                                       : 2
Format                                   : DTS
Format/Info                              : Digital Theater Systems
Codec ID                                 : A_DTS
Duration                                 : 1 h 47 min
Bit rate mode                            : Constant
Bit rate                                 : 1 509 kb/s
Channel(s)                               : 2 channels
Channel layout                           : L R
Sampling rate                            : 48.0 kHz
Frame rate                               : 93.750 FPS (512 SPF)
Bit depth                                : 16 bits
Compression mode                         : Lossy
Stream size                              : 1.13 GiB (12%)
Language                                 : English
Default                                  : Yes
Forced                                   : No

Text
ID                                       : 3
Format                                   : UTF-8
Codec ID                                 : S_TEXT/UTF8
Codec ID/Info                            : UTF-8 Plain Text
Duration                                 : 1 h 38 min
Bit rate                                 : 69 b/s
Count of elements                        : 1845
Stream size                              : 50.0 KiB (0%)
Language                                 : English
Default                                  : Yes
Forced                                   : No

Menu
00:00:00.000                             : Chapter 01
00:10:17.625                             : Chapter 02
00:15:42.875                             : Chapter 03
00:24:34.833                             : Chapter 04
00:32:32.958                             : Chapter 05
00:44:51.291                             : Chapter 06
00:53:10.833                             : Chapter 07
00:59:57.458                             : Chapter 08
01:07:10.791                             : Chapter 09
01:17:03.791                             : Chapter 10
01:26:10.458                             : Chapter 11
01:38:51.041                             : Chapter 12

e6d9fd16533561bc1d8d30b347fdf168.png

[/url]25836c0038ad3280724fee40d831d943.png

[/url]



                                                                                                                                                                                                        
                                                                                                                                                                                                                                                                                                                                                                                                                                                                                                                                                                                                                                                                                                                                                                                                                                                        
e288969beb78307538f50297c2214cef.torrent (25.02 KB, 下载次数: 0)

回复

使用道具 举报

小黑屋|西西论坛

本网站所有资源来自网络,如无意中侵犯了您的权益,请发邮件至 [email protected],立即清除相关链接

GMT+8, 2021-10-20 12:25 , Processed in 0.079225 second(s), 17 queries .

Powered by Discuz! X3.2

© 2001-2013 Comsenz Inc.

快速回复 返回顶部 返回列表