西西论坛

 找回密码
 立即注册
搜索

贡达/豬嘜農莊(港) Gunda.2020.NORWEGIAN.1080p.BluRay.x264.DD5.1-PTer 9.92GB ... ...

[复制链接]
admin 发表于 6 天前 | 显示全部楼层 |阅读模式
贡达/豬嘜農莊(港) Gunda.2020.NORWEGIAN.1080p.BluRay.x264.DD5.1-PTer 9.92GB                                                                                                                                                                                                                                                                                                                                                                                                                                                                                                                                        -->
帖子完整标题:贡达/豬嘜農莊(港) Gunda.2020.NORWEGIAN.1080p.BluRay.x264.DD5.1-PTer 9.92GB



fd355bc36a5c5b7595011ed06fe7c416.jpg



◎译  名 贡达/豬嘜農莊(港)
◎片  名 Gunda
◎年  代 2020
◎产  地 挪威,美国
◎类  别 纪录片
◎语  言 无对白
◎上映日期 2020-02-23(柏林电影节) / 2020-12-11(美国)
◎豆瓣评分 7.3/10 from 516 users
◎豆瓣链接 
◎片  长 93分钟
◎导  演 维克多·科萨科夫斯基 Victor Kossakovsky
◎编  剧 维克多·科萨科夫斯基 Victor Kossakovsky

◎标  签 纪录片 | 2020 | 挪威 | 美国 | 柏林电影节 | 黑白 | P-BerlinB入围奇遇单元 | 2020s

◎简  介

  通过与母猪(同名[贡达])、两头聪明的母牛和一只抢镜头的独腿鸡的相遇,提醒我们生命的固有价值和所有动物意识的奥秘,包括我们自己的意识。

◎获奖情况

  第70届柏林国际电影节 ?(2020)
  遇见单元最佳影片(提名) 维克多·科萨科夫斯基
  
  第33届欧洲电影奖 ?(2020)
  最佳纪录片(提名)
  
  第35届美国摄影协会奖 ?(2021)
  纪录片最佳摄影(提名) EgilH?skjoldLarsen?/?维克多·科萨科夫斯基
  
  第25届金卫星奖 ?(2021)
  电影部门最佳纪录片(提名)
Video
ID                                       : 1
Format                                   : AVC
Format/Info                              : Advanced Video Codec
Format profile                           :
Format settings                          : CABAC / 4 Ref Frames
Format settings, CABAC                   : Yes
Format settings, Reference frames        : 4 frames
Codec ID                                 : V_MPEG4/ISO/AVC
Duration                                 : 1 h 32 min
Bit rate                                 : 14.6 Mb/s
Width                                    : 1 920 pixels
Height                                   : 1 038 pixels
Display aspect ratio                     : 1.85:1
Frame rate mode                          : Constant
Frame rate                               : 24.000 FPS
Color space                              : YUV
Chroma subsampling                       : 4:2:0
Bit depth                                : 8 bits
Scan type                                : Progressive
Bits/(Pixel*Frame)                       : 0.306
Stream size                              : 9.50 GiB (96%)
Writing library                          : x264 core 164 r3065 ae03d92
Encoding settings                        : cabac=1 / ref=4 / deblock=1:-3:-3 / analyse=0x3:0x133 / me=umh / subme=11 / psy=1 / psy_rd=1.02:0.00 / mixed_ref=1 / me_range=32 / chroma_me=1 / trellis=2 / 8x8dct=1 / cqm=0 / deadzone=21,11 / fast_pskip=0 / chroma_qp_offset=-2 / threads=18 / lookahead_threads=3 / sliced_threads=0 / nr=0 / decimate=0 / interlaced=0 / bluray_compat=0 / constrained_intra=0 / bframes=7 / b_pyramid=2 / b_adapt=2 / b_bias=0 / direct=3 / weightb=1 / open_gop=0 / weightp=2 / keyint=250 / keyint_min=24 / scenecut=40 / intra_refresh=0 / rc_lookahead=250 / rc=crf / mbtree=0 / crf=17.9 / qcomp=0.60 / qpmin=0 / qpmax=69 / qpstep=4 / vbv_maxrate=62500 / vbv_bufsize=78125 / crf_max=0.0 / nal_hrd=none / filler=0 / ip_ratio=1.30 / pb_ratio=1.20 / aq=3:0.80
Default                                  : Yes
Forced                                   : No
Color range                              : Limited
Color primaries                          : BT.709
Matrix coefficients                      : BT.709

Audio
ID                                       : 2
Format                                   : AC-3
Format/Info                              : Audio Coding 3
Commercial name                          : Dolby Digital
Codec ID                                 : A_AC3
Duration                                 : 1 h 32 min
Bit rate mode                            : Constant
Bit rate                                 : 640 kb/s
Channel(s)                               : 6 channels
Channel layout                           : L R C LFE Ls Rs
Sampling rate                            : 48.0 kHz
Frame rate                               : 31.250 FPS (1536 SPF)
Compression mode                         : Lossy
Stream size                              : 425 MiB (4%)
Title                                    : Norwegian Bokm?l
Language                                 : Norwegian
Service kind                             : Complete Main
Default                                  : Yes
Forced                                   : No

Text
ID                                       : 3
Format                                   : UTF-8
Codec ID                                 : S_TEXT/UTF8
Codec ID/Info                            : UTF-8 Plain Text
Duration                                 : 1 h 32 min
Bit rate                                 : 6 b/s
Count of elements                        : 247
Stream size                              : 4.15 KiB (0%)
Language                                 : English
Default                                  : No
Forced                                   : No

Menu
00:00:00.000                             : Chapter 01
00:11:56.167                             : Chapter 02
00:23:57.500                             : Chapter 03
00:35:13.750                             : Chapter 04
00:49:09.250                             : Chapter 05
01:03:15.292                             : Chapter 06
01:14:28.583                             : Chapter 07
01:23:10.125                             : Chapter 08

51c6391fe00acd4f7812d6de233b8b70.png

[/url]17692c9a68920e62441df6aa14fd3068.png

[/url]6597a905d0f37030c4bcb2e51d313b6c.png

[/url]



                                                                                                                                                                                                        
                                                                                                                                                                                                                                                                                                                                                                                                                                                                                                                                                                                                                                                                                                                                                                                                                                                        
b226d7747a64ac75e7c0f2917e673fa6.torrent (25.42 KB, 下载次数: 0)

回复

使用道具 举报

小黑屋|西西论坛

本网站所有资源来自网络,如无意中侵犯了您的权益,请发邮件至 [email protected],立即清除相关链接

GMT+8, 2021-10-20 12:15 , Processed in 0.123228 second(s), 17 queries .

Powered by Discuz! X3.2

© 2001-2013 Comsenz Inc.

快速回复 返回顶部 返回列表