西西论坛

 找回密码
 立即注册
搜索

20岁的差距/20岁差距的恋爱 It.Boy.2013.FRENCH.1080p.BluRay.x264.DTS-PTer 12.41GB ...

[复制链接]
admin 发表于 6 天前 | 显示全部楼层 |阅读模式
20岁的差距/20岁差距的恋爱 It.Boy.2013.FRENCH.1080p.BluRay.x264.DTS-PTer 12.41GB                                                                                                                                                                                                                                                                                                                                                                                                                                                                                                                                        -->
帖子完整标题:20岁的差距/20岁差距的恋爱 It.Boy.2013.FRENCH.1080p.BluRay.x264.DTS-PTer 12.41GB



80cdd52beb8c027f06b1594dbb703bac.jpg



◎译  名 20岁的差距/20岁差距的恋爱/20岁年下男的恋爱/20年的距离/It Boy
◎片  名 20 ans d'écart
◎年  代 2013
◎产  地 法国
◎类  别 喜剧 / 爱情
◎语  言 法语
◎上映日期 2013-03-06(法国)
◎豆瓣评分 6.8/10 from 12543 users
◎豆瓣链接 
◎片  长 92分钟
◎导  演 大卫·莫罗 David Moreau
◎编  剧 阿姆鲁·哈姆扎维 Amro Hamzawi / 大卫·莫罗 David Moreau
◎主  演 夏尔·贝尔林 Charles Berling
       维尔日妮·埃菲拉 Virginie Efira
       皮埃尔·尼内 Pierre Niney
       泽维尔·勒梅特 Xavier Lema?tre
       Camille Pélicier Camille Pélicier
       阿蒂尔·马泽 Arthur Mazet
       卡米尔·沙隆 Camille Chalons
       Camille Japy Camille Japy
       阿梅莉·格朗 Amélie Glenn
       吉勒·科昂 Gilles Cohen
       斯卡利·德尔佩拉 Scali Delpeyrat

◎标  签 爱情 | 法国 | 喜剧 | 法国电影 | 姐弟恋 | 轻松诙谐 | 很法国的一部电影 | 2013

◎简  介

  爱丽丝·朗丹(维尔日妮·埃菲拉 Virginie Efira 饰)是一个38岁的单亲妈妈,她很漂亮而且上进,但是在前夫眼里她很无趣,因此她全身心寄情于杂志社的工作。爱丽丝本来有资格成为下一任主编,可是上司和同事纷纷觉得她的形象太老气和刻板,无奈的她心灰意冷。一次坐飞机途 中,她巧遇了刚满20岁的年轻帅小伙巴尔塔扎(皮埃尔·尼内 Pierre Niney 饰),两人在一起的时候被同事看见并误会她搞起了时髦的姐弟恋,因此他们对她的态度也转变了。爱丽丝觉得这个意外是她升职的关键,于是主动开始了勾引巴尔塔扎的计划,本是无心的相遇却变成了愈演愈烈的纠葛。
Video
ID                                       : 1
Format                                   : AVC
Format/Info                              : Advanced Video Codec
Format profile                           :
Format settings                          : CABAC / 5 Ref Frames
Format settings, CABAC                   : Yes
Format settings, Reference frames        : 5 frames
Codec ID                                 : V_MPEG4/ISO/AVC
Duration                                 : 1 h 32 min
Bit rate                                 : 17.7 Mb/s
Width                                    : 1 920 pixels
Height                                   : 808 pixels
Display aspect ratio                     : 2.40:1
Frame rate mode                          : Constant
Frame rate                               : 24.000 FPS
Color space                              : YUV
Chroma subsampling                       : 4:2:0
Bit depth                                : 8 bits
Scan type                                : Progressive
Bits/(Pixel*Frame)                       : 0.474
Stream size                              : 11.4 GiB (92%)
Writing library                          : x264 core 161 r3027 4121277
Encoding settings                        : cabac=1 / ref=5 / deblock=1:-3:-3 / analyse=0x3:0x133 / me=umh / subme=11 / psy=1 / psy_rd=1.02:0.00 / mixed_ref=1 / me_range=32 / chroma_me=1 / trellis=2 / 8x8dct=1 / cqm=0 / deadzone=21,11 / fast_pskip=0 / chroma_qp_offset=-2 / threads=18 / lookahead_threads=4 / sliced_threads=0 / nr=0 / decimate=0 / interlaced=0 / bluray_compat=0 / constrained_intra=0 / bframes=16 / b_pyramid=2 / b_adapt=2 / b_bias=0 / direct=3 / weightb=1 / open_gop=0 / weightp=2 / keyint=250 / keyint_min=24 / scenecut=40 / intra_refresh=0 / rc_lookahead=250 / rc=crf / mbtree=0 / crf=19.0 / qcomp=0.60 / qpmin=0 / qpmax=69 / qpstep=4 / vbv_maxrate=62500 / vbv_bufsize=78125 / crf_max=0.0 / nal_hrd=none / filler=0 / ip_ratio=1.30 / pb_ratio=1.20 / aq=3:0.80
Language                                 : French
Default                                  : Yes
Forced                                   : No
Color range                              : Limited
Color primaries                          : BT.709
Matrix coefficients                      : BT.709

Audio
ID                                       : 2
Format                                   : DTS
Format/Info                              : Digital Theater Systems
Codec ID                                 : A_DTS
Duration                                 : 1 h 32 min
Bit rate mode                            : Constant
Bit rate                                 : 1 509 kb/s
Channel(s)                               : 6 channels
Channel layout                           : C L R Ls Rs LFE
Sampling rate                            : 48.0 kHz
Frame rate                               : 93.750 FPS (512 SPF)
Bit depth                                : 24 bits
Compression mode                         : Lossy
Stream size                              : 999 MiB (8%)
Language                                 : French
Default                                  : Yes
Forced                                   : No

Text #1
ID                                       : 3
Format                                   : UTF-8
Codec ID                                 : S_TEXT/UTF8
Codec ID/Info                            : UTF-8 Plain Text
Duration                                 : 1 h 27 min
Bit rate                                 : 62 b/s
Count of elements                        : 1405
Stream size                              : 40.2 KiB (0%)
Title                                    : Simplified Chinese&English
Language                                 : Chinese
Default                                  : Yes
Forced                                   : No

Text #2
ID                                       : 4
Format                                   : UTF-8
Codec ID                                 : S_TEXT/UTF8
Codec ID/Info                            : UTF-8 Plain Text
Duration                                 : 1 h 27 min
Bit rate                                 : 59 b/s
Count of elements                        : 1413
Stream size                              : 38.0 KiB (0%)
Language                                 : English
Default                                  : No
Forced                                   : No

Text #3
ID                                       : 5
Format                                   : PGS
Muxing mode                              : zlib
Codec ID                                 : S_HDMV/PGS
Codec ID/Info                            : Picture based subtitle format used on BDs/HD-DVDs
Duration                                 : 1 h 32 min
Bit rate                                 : 38.0 kb/s
Count of elements                        : 3006
Stream size                              : 25.2 MiB (0%)
Language                                 : French
Default                                  : No
Forced                                   : No

Menu
00:00:00.000                             : Chapter 1
00:07:29.625                             : Chapter 2
00:13:56.083                             : Chapter 3
00:21:12.625                             : Chapter 4
00:28:49.917                             : Chapter 5
00:37:18.875                             : Chapter 6
00:45:08.958                             : Chapter 7
00:53:21.583                             : Chapter 8
01:02:53.875                             : Chapter 9
01:11:13.917                             : Chapter 10
01:19:59.000                             : Chapter 11
01:26:44.875                             : Chapter 12

68b8afab1219d3903e490e16f232e81b.png

[/url]b270855a1ba6889c01795987961a2915.png

[/url]



                                                                                                                                                                                                        
                                                                                                                                                                                                                                                                                                                                                                                                                                                                                                                                                                                                                                                                                                                                                                                                                                                        
ae4dfc065e919dd8f7c4e3038fac0a91.torrent (16.14 KB, 下载次数: 0)

回复

使用道具 举报

小黑屋|西西论坛

本网站所有资源来自网络,如无意中侵犯了您的权益,请发邮件至 [email protected],立即清除相关链接

GMT+8, 2021-10-20 12:08 , Processed in 0.091680 second(s), 17 queries .

Powered by Discuz! X3.2

© 2001-2013 Comsenz Inc.

快速回复 返回顶部 返回列表