西西论坛

 找回密码
 立即注册
搜索

大笑的继承人 Lachende.Erben.1933.GERMAN.1080p.BluRay.x264.FLAC.2.0-EDPH 8.03GB . ...

[复制链接]
admin 发表于 6 天前 | 显示全部楼层 |阅读模式
大笑的继承人 Lachende.Erben.1933.GERMAN.1080p.BluRay.x264.FLAC.2.0-EDPH 8.03GB                                                                                                                                                                                                                                                                                                                                                                                                                                                                                                                                        -->
帖子完整标题:大笑的继承人 Lachende.Erben.1933.GERMAN.1080p.BluRay.x264.FLAC.2.0-EDPH 8.03GB



870eafa785c78d6eaa9b59ae48a460a2.jpg



◎译  名 大笑的继承人/Laughing Heirs
◎片  名 Lachende Erben
◎年  代 1933
◎产  地 德语
◎类  别 喜剧 / 爱情
◎语  言 德国
◎上映日期 1933-03-06
◎豆瓣评分 /10 from 0 users
◎豆瓣链接 
◎片  长 76 分钟
◎导  演 马克斯·奥菲尔斯 Max Ophüls
◎编  剧 费利克斯·雅克松 Felix Jackson / 马克斯·奥菲尔斯 Max Ophüls
◎主  演 莉恩·德耶尔斯 Lien Deyers
       海因茨·吕曼 Heinz Rühmann
       Ida Wüst Ida Wüst
       Lizzi Waldmüller Lizzi Waldmüller
       Max Wilmsen Max Wilmsen
       Walter Steinbeck Walter Steinbeck
       沃尔特·扬森 Walter Janssen
       Heinrich Gotho Heinrich Gotho
       Friedl Haerlin Friedl Haerlin
       Illo Gutschwager Illo Gutschwager
       Friedrich Ettel Friedrich Ettel
       麦克斯·阿德尔伯特 Max Adalbert
       朱利叶斯·法尔肯施泰因 Julius Falkenstein

◎标  签 德国 | 黑白 | 马克斯·奥菲尔斯 | 德国电影 | MaxOphüls | 喜剧 | Max_Ophüls | 1930s

◎简  介

  To Max Ophüls this was an assignment (from the UFA), a pure routine job. One hardly recognizes the later Ophüls in this film (shortly made before his masterpiece "Liebelei"), but still Ophüls made this routine job into a well-paced, stylish and sometimes extremely funny romantic comedy; he probably could not do it any other way. The script is fine with some hilarious dialogue. The use of the surnames of the characters is simple but clever.
  
  Having Ophüls in mind the film can also be considered a celebration of happy-go-lucky life: contrasted are those who live an easy going, wine and dine life with those whose narrow-minded life is based on punctuality and mineral water. Maybe that is why the film was banned in 1937: it was considered a film that could endanger public order and national-socialist feelings.
  
  Good cast with Heinz Rühmann who shows his natural comic talent at best and Max Adalbert who is very good as the grumpy uncle; supporting cast good as well. Chauvinism makes me want to point out Lien Deyers (as Gina), a fine, charming and attractive actress from The Netherlands who had a successful career in German cinema.
Video
ID                                       : 1
Format                                   : AVC
Format/Info                              : Advanced Video Codec
Format profile                           :
Format settings                          : CABAC / 5 Ref Frames
Format settings, CABAC                   : Yes
Format settings, Reference frames        : 5 frames
Codec ID                                 : V_MPEG4/ISO/AVC
Duration                                 : 1 h 15 min
Bit rate                                 : 14.9 Mb/s
Width                                    : 1 480 pixels
Height                                   : 1 080 pixels
Display aspect ratio                     : 1.370
Frame rate mode                          : Constant
Frame rate                               : 24.000 FPS
Color space                              : YUV
Chroma subsampling                       : 4:2:0
Bit depth                                : 8 bits
Scan type                                : Progressive
Bits/(Pixel*Frame)                       : 0.388
Stream size                              : 7.88 GiB (98%)
Writing library                          : x264 core 160 r3009 4c9b076
Encoding settings                        : cabac=1 / ref=5 / deblock=1:-3:-3 / analyse=0x3:0x133 / me=umh / subme=11 / psy=1 / psy_rd=1.02:0.00 / mixed_ref=1 / me_range=32 / chroma_me=1 / trellis=2 / 8x8dct=1 / cqm=0 / deadzone=21,11 / fast_pskip=0 / chroma_qp_offset=-2 / threads=34 / lookahead_threads=8 / sliced_threads=0 / nr=0 / decimate=0 / interlaced=0 / bluray_compat=0 / constrained_intra=0 / bframes=16 / b_pyramid=2 / b_adapt=2 / b_bias=0 / direct=3 / weightb=1 / open_gop=0 / weightp=2 / keyint=250 / keyint_min=24 / scenecut=40 / intra_refresh=0 / rc_lookahead=250 / rc=crf / mbtree=0 / crf=24.0 / qcomp=0.65 / qpmin=0 / qpmax=69 / qpstep=4 / vbv_maxrate=62500 / vbv_bufsize=78125 / crf_max=0.0 / nal_hrd=none / filler=0 / ip_ratio=1.30 / pb_ratio=1.20 / aq=3:0.60
Language                                 : English
Default                                  : Yes
Forced                                   : No
Color range                              : Limited
Color primaries                          : BT.709
Matrix coefficients                      : BT.709

Audio
ID                                       : 2
Format                                   : FLAC
Format/Info                              : Free Lossless Audio Codec
Codec ID                                 : A_FLAC
Duration                                 : 1 h 15 min
Bit rate mode                            : Variable
Bit rate                                 : 279 kb/s
Channel(s)                               : 2 channels
Channel layout                           : L R
Sampling rate                            : 48.0 kHz
Frame rate                               : 11.719 FPS (4096 SPF)
Bit depth                                : 16 bits
Compression mode                         : Lossless
Stream size                              : 151 MiB (2%)
Writing library                          : libFLAC 1.2.1 (UTC 2007-09-17)
Language                                 : German
Default                                  : Yes
Forced                                   : No

Text
ID                                       : 3
Format                                   : UTF-8
Codec ID                                 : S_TEXT/UTF8
Codec ID/Info                            : UTF-8 Plain Text
Duration                                 : 1 h 13 min
Bit rate                                 : 80 b/s
Count of elements                        : 1064
Stream size                              : 43.9 KiB (0%)
Language                                 : English
Default                                  : No
Forced                                   : No

Menu
00:00:00.000                             : en:Chapter 1
00:10:30.250                             : en:Chapter 2
00:20:48.958                             : en:Chapter 3
00:26:19.625                             : en:Chapter 4
00:36:21.875                             : en:Chapter 5
00:43:46.041                             : en:Chapter 6
00:51:54.541                             : en:Chapter 7
01:05:08.708                             : en:Chapter 8





                                                                                                                                                                                                        
                                                                                                                                                                                                                                                                                                                                                                                                                                                                                                                                                                                                                                                                                                                                                                                                                                                        
0bd49f98d53c49bb0b02b4626e4bccdf.torrent (20.7 KB, 下载次数: 0)

回复

使用道具 举报

小黑屋|西西论坛

本网站所有资源来自网络,如无意中侵犯了您的权益,请发邮件至 [email protected],立即清除相关链接

GMT+8, 2021-10-20 12:03 , Processed in 0.128383 second(s), 17 queries .

Powered by Discuz! X3.2

© 2001-2013 Comsenz Inc.

快速回复 返回顶部 返回列表