西西论坛

 找回密码
 立即注册
搜索

油脂恋 Moment.By.Moment.1978.1080p.BluRay.x264.DTS-FGT 9.55GB

[复制链接]
admin 发表于 6 天前 | 显示全部楼层 |阅读模式
油脂恋 Moment.By.Moment.1978.1080p.BluRay.x264.DTS-FGT 9.55GB                                                                                                                                                                                                                                                                                                                                                                                                                                                                                                                                        -->
帖子完整标题:油脂恋 Moment.By.Moment.1978.1080p.BluRay.x264.DTS-FGT 9.55GB



77e204293afe97e78be7e7dc63ade610.jpg



◎译  名 油脂恋
◎片  名 Moment by Moment
◎年  代 1978
◎产  地 美国
◎类  别 剧情 / 爱情
◎语  言 英语
◎上映日期 1978-12-22
◎豆瓣评分 /10 from 0 users
◎豆瓣链接 
◎片  长 USA: 102 分钟
◎导  演 简·瓦格纳 Jane Wagner
◎编  剧 简·瓦格纳 Jane Wagner
◎主  演 黛布拉·弗埃 Debra Feuer

◎标  签 爱情 | 1978 | 莉莉·汤姆琳 | 美国 | 歌舞 | 很想看 | movie | WEB

◎简  介

  Moment by Moment is a 1978 film starring John Travolta and Lily Tomlin. The film was written and directed by Jane Wagner.
Video
ID                                       : 1
Format                                   : AVC
Format/Info                              : Advanced Video Codec
Format profile                           :
Format settings                          : CABAC / 4 Ref Frames
Format settings, CABAC                   : Yes
Format settings, Reference frames        : 4 frames
Codec ID                                 : V_MPEG4/ISO/AVC
Duration                                 : 1 h 45 min
Bit rate                                 : 11.5 Mb/s
Width                                    : 1 920 pixels
Height                                   : 816 pixels
Display aspect ratio                     : 2.35:1
Frame rate mode                          : Constant
Frame rate                               : 23.976 (24000/1001/189150) FPS
Color space                              : YUV
Chroma subsampling                       : 4:2:0
Bit depth                                : 8 bits
Scan type                                : Progressive
Bits/(Pixel*Frame)                       : 0.306
Stream size                              : 8.44 GiB (88%)
Writing library                          : x264 core 148 r2748 97eaef2
Encoding settings                        : cabac=1 / ref=4 / deblock=1:-2:-2 / analyse=0x3:0x113 / me=umh / subme=9 / psy=1 / psy_rd=1.00:0.15 / mixed_ref=1 / me_range=16 / chroma_me=1 / trellis=2 / 8x8dct=1 / cqm=0 / deadzone=21,11 / fast_pskip=1 / chroma_qp_offset=-3 / threads=72 / lookahead_threads=3 / sliced_threads=0 / nr=0 / decimate=1 / interlaced=0 / bluray_compat=0 / constrained_intra=0 / bframes=3 / b_pyramid=2 / b_adapt=1 / b_bias=0 / direct=3 / weightb=1 / open_gop=0 / weightp=2 / keyint=250 / keyint_min=25 / scenecut=40 / intra_refresh=0 / rc_lookahead=50 / rc=2pass / mbtree=1 / bitrate=11500 / ratetol=1.0 / qcomp=0.60 / qpmin=0 / qpmax=69 / qpstep=4 / cplxblur=20.0 / qblur=0.5 / vbv_maxrate=31250 / vbv_bufsize=31250 / nal_hrd=none / filler=0 / ip_ratio=1.40 / aq=1:1.00
Language                                 : English
Default                                  : Yes
Forced                                   : No

Audio
ID                                       : 2
Format                                   : DTS
Format/Info                              : Digital Theater Systems
Codec ID                                 : A_DTS
Duration                                 : 1 h 45 min
Bit rate mode                            : Constant
Bit rate                                 : 1 509 kb/s
Channel(s)                               : 2 channels
Channel layout                           : L R
Sampling rate                            : 48.0 kHz
Frame rate                               : 93.750 FPS (512 SPF)
Bit depth                                : 16 bits
Compression mode                         : Lossy
Stream size                              : 1.11 GiB (12%)
Language                                 : English
Default                                  : Yes
Forced                                   : No

Text
ID                                       : 3
Format                                   : UTF-8
Codec ID                                 : S_TEXT/UTF8
Codec ID/Info                            : UTF-8 Plain Text
Duration                                 : 1 h 42 min
Bit rate                                 : 53 b/s
Count of elements                        : 1167
Stream size                              : 40.4 KiB (0%)
Language                                 : English
Default                                  : Yes
Forced                                   : No

Menu
00:00:00.000                             : Chapter 01
00:08:22.836                             : Chapter 02
00:16:48.966                             : Chapter 03
00:25:46.462                             : Chapter 04
00:37:23.283                             : Chapter 05
00:48:17.144                             : Chapter 06
00:59:16.636                             : Chapter 07
01:13:23.399                             : Chapter 08
01:27:08.765                             : Chapter 09
01:35:48.201                             : Chapter 10

6d1c34be4e74fd657778d68aa9616041.png

[/url]84ad38063d6960ae15bb66774aa0eac0.png

[/url]0509773f2c014009298b7252efab70ac.png

[/url]



                                                                                                                                                                                                        
                                                                                                                                                                                                                                                                                                                                                                                                                                                                                                                                                                                                                                                                                                                                                                                                                                                        
91c4515d2cb648441758fdcdfb2b9609.torrent (24.5 KB, 下载次数: 0)

回复

使用道具 举报

小黑屋|西西论坛

本网站所有资源来自网络,如无意中侵犯了您的权益,请发邮件至 [email protected],立即清除相关链接

GMT+8, 2021-10-20 11:48 , Processed in 0.092129 second(s), 17 queries .

Powered by Discuz! X3.2

© 2001-2013 Comsenz Inc.

快速回复 返回顶部 返回列表