西西论坛

 找回密码
 立即注册
搜索

哀愁灰姑娘 Melancholy.2021.JAPANESE.1080p.BluRay.x264.DDP7.1-c0kE 11.47GB

[复制链接]
admin 发表于 2021-10-14 16:23:37 | 显示全部楼层 |阅读模式
哀愁灰姑娘 Melancholy.2021.JAPANESE.1080p.BluRay.x264.DDP7.1-c0kE 11.47GB                                                                                                                                                                                                                                                                                                                                                                                                                                                                                                                                        -->
帖子完整标题:哀愁灰姑娘 Melancholy.2021.JAPANESE.1080p.BluRay.x264.DDP7.1-c0kE 11.47GB



f58bf0a2350c5f254cec72dde5f0f7d5.jpg



◎译  名 哀愁灰姑娘/Melancholy/The Cinderella Addiction
◎片  名 哀愁しんでれら
◎年  代 2021
◎产  地 日本
◎类  别 惊悚 / 恐怖
◎语  言 日语
◎上映日期 2021-02-05(日本)
◎豆瓣评分 5.8/10 from 2055 users
◎豆瓣链接 
◎片  长 114分钟
◎导  演 渡部亮平 Ry?hei Watanabe
◎编  剧 渡部亮平 Ry?hei Watanabe
◎主  演 土屋太凤 Tao Tsuchiya
       田中圭 Kei Tanaka
       山田杏奈 Anna Yamada
       安藤轮子 Wako And?
       金泽美穗 Miho Kanazawa
       中村靖日 Yasuhi Nakamura
       正名仆蔵 Bokuz? Masana
       银粉蝶 Guin Poon Chaw
       石桥凌 Ryo Ishibashi

◎标  签 日本 | 犯罪 | 2021 | 田中圭 | 日本电影 | 土屋太凤 | 电影 | 日影

◎简  介

  该片女主是一名在市役所工作的普通职员“小春”,却在一晚之间遭遇了巨大的不幸——祖父病倒被送进医院,父亲因酒驾被带进局里,自己家宅子起火烧光,警察在了解情况时,小春发现自己的恋人出轨了自己的同事……。一个晚上失去了所有。而在这样的小春面前,出现了一位带着八岁女儿的医生“大悟”,宛若王子一样的人他向小春求婚,并将小春从不幸的谷底带到幸福的巅峰。然而,在某一日,小春却引发了一场前所未闻的凶恶事件……
Video
ID                                       : 1
Format                                   : AVC
Format/Info                              : Advanced Video Codec
Format profile                           :
Format settings                          : CABAC / 5 Ref Frames
Format settings, CABAC                   : Yes
Format settings, Reference frames        : 5 frames
Codec ID                                 : V_MPEG4/ISO/AVC
Duration                                 : 1 h 54 min
Bit rate                                 : 12.7 Mb/s
Width                                    : 1 920 pixels
Height                                   : 804 pixels
Display aspect ratio                     : 2.40:1
Frame rate mode                          : Constant
Frame rate                               : 23.976 (24000/1001/189150) FPS
Color space                              : YUV
Chroma subsampling                       : 4:2:0
Bit depth                                : 8 bits
Scan type                                : Progressive
Bits/(Pixel*Frame)                       : 0.344
Stream size                              : 10.2 GiB (89%)
Title                                    : Melancholy (2021) / c0kE
Writing library                          : x264 core 164 r3065+62M b012ed0 devel [(8 & 10) X86_64]
Encoding settings                        : cabac=1 / ref=5 / deblock=1:-3:-3 / analyse=0x3:0x133 / me=umh / subme=10 / psy=1 / fade_compensate=0.00 / psy_rd=1.02:0.00 / mixed_ref=1 / me_range=32 / chroma_me=1 / trellis=2 / 8x8dct=1 / cqm=0 / deadzone=21,11 / fast_pskip=0 / chroma_qp_offset=-2 / threads=12 / lookahead_threads=3 / sliced_threads=0 / nr=0 / decimate=0 / interlaced=0 / bluray_compat=0 / constrained_intra=0 / fgo=0 / bframes=10 / b_pyramid=2 / b_adapt=2 / b_bias=0 / direct=3 / weightb=1 / open_gop=0 / weightp=2 / keyint=250 / keyint_min=23 / scenecut=40 / intra_refresh=0 / rc_lookahead=60 / rc=crf / mbtree=0 / crf=16.5000 / qcomp=0.65 / qpmin=0:0:0 / qpmax=69:69:69 / qpstep=4 / vbv_maxrate=62500 / vbv_bufsize=78125 / crf_max=0.0 / nal_hrd=none / filler=0 / ip_ratio=1.30 / pb_ratio=1.20 / aq=3:0.80 / aq-sensitivity=10.00 / aq-factor=1.00:1.00:1.00 / aq2=0 / aq3=0
Language                                 : Japanese
Default                                  : Yes
Forced                                   : No
Color range                              : Limited
Color primaries                          : BT.709
Matrix coefficients                      : BT.709

Audio
ID                                       : 2
Format                                   : E-AC-3
Format/Info                              : Enhanced AC-3
Commercial name                          : Dolby Digital Plus
Format profile                           : Blu-ray Disc
Codec ID                                 : A_EAC3
Duration                                 : 1 h 54 min
Bit rate mode                            : Constant
Bit rate                                 : 1 536 kb/s
Channel(s)                               : 8 channels
Channel layout                           : L R C LFE Ls Rs Lb Rb
Sampling rate                            : 48.0 kHz
Frame rate                               : 31.250 FPS (1536 SPF)
Compression mode                         : Lossy
Stream size                              : 1.23 GiB (11%)
Language                                 : Japanese
Service kind                             : Complete Main
Default                                  : Yes
Forced                                   : No

Text
ID                                       : 3
Format                                   : UTF-8
Codec ID                                 : S_TEXT/UTF8
Codec ID/Info                            : UTF-8 Plain Text
Duration                                 : 1 h 53 min
Bit rate                                 : 36 b/s
Count of elements                        : 1155
Stream size                              : 30.6 KiB (0%)
Language                                 : English
Default                                  : Yes
Forced                                   : No

Menu
00:00:00.000                             : Chapter 01
00:01:54.823                             : Chapter 02
00:09:51.591                             : Chapter 03
00:18:09.463                             : Chapter 04
00:30:45.302                             : Chapter 05
00:46:53.477                             : Chapter 06
00:58:47.232                             : Chapter 07
01:13:52.219                             : Chapter 08
01:23:13.906                             : Chapter 09
01:31:56.469                             : Chapter 10
01:39:19.579                             : Chapter 11
01:45:48.884                             : Chapter 12

4b384ba15ee0eefb20984d8242923859.png

[/url]98732e94e68e658e4872bdb575113686.png

[/url]



                                                                                                                                                                                                        
                                                                                                                                                                                                                                                                                                                                                                                                                                                                                                                                                                                                                                                                                                                                                                                                                                                        
7d7d7ed4f3c4220fc8b0953d8fd0d54f.torrent (14.98 KB, 下载次数: 0)

回复

使用道具 举报

小黑屋|西西论坛

本网站所有资源来自网络,如无意中侵犯了您的权益,请发邮件至 [email protected],立即清除相关链接

GMT+8, 2021-10-26 01:13 , Processed in 0.135191 second(s), 17 queries .

Powered by Discuz! X3.2

© 2001-2013 Comsenz Inc.

快速回复 返回顶部 返回列表