西西论坛

 找回密码
 立即注册
搜索

绿衣骑士/绿骑士 The.Green.Knight.2021.1080p.BluRay.x264-PiGNUS 12.28GB

[复制链接]
admin 发表于 6 天前 | 显示全部楼层 |阅读模式
绿衣骑士/绿骑士 The.Green.Knight.2021.1080p.BluRay.x264-PiGNUS 12.28GB                                                                                                                                                                                                                                                                                                                                                                                                                                                                                                                                        -->
帖子完整标题:绿衣骑士/绿骑士 The.Green.Knight.2021.1080p.BluRay.x264-PiGNUS 12.28GB



8d37c2d8dc68c05dce62fd4961931061.jpg



◎译  名 绿衣骑士/绿骑士(台)
◎片  名 The Green Knight
◎年  代 2021
◎产  地 爱尔兰,加拿大,美国,英国
◎类  别 剧情 / 奇幻 / 冒险
◎语  言 英语
◎上映日期 2021-07-30(美国)
◎豆瓣评分 6.5/10 from 10147 users
◎豆瓣链接 
◎片  长 130分钟
◎导  演 大卫·洛维 David Lowery
◎编  剧 大卫·洛维 David Lowery
◎主  演 戴夫·帕特尔 Dev Patel
       艾丽西亚·维坎德 Alicia Vikander
       萨莉塔·乔德霍里 Sarita Choudhury
       拉尔夫·伊内森 Ralph Ineson
       西恩·哈里斯 Sean Harris
       乔尔·埃哲顿 Joel Edgerton
       巴里·基奥恩 Barry Keoghan
       艾琳·凯利曼 Erin Kellyman
       雅典娜·弗里泽尔 Atheena Frizzell
       尼塔·米什拉 Nita Mishra
       塔拉·麦克唐纳 Tara McDonagh
       凯特·迪基 Kate Dickie
       阿奈·里佐 Ana?s Rizzo
       克里斯·麦克哈利姆 Chris McHallem
       乔·安德森 Joe Anderson
       Brendan Conroy Brendan Conroy
       唐查·克劳利 Donncha Crowley
       安东尼·莫里斯 Anthony Morris
       诺埃尔·布朗 Noelle Brown

◎标  签 奇幻 | 美国 | 2021 | 剧情 | A24 | 惊悚 | 欧美 | 古装

◎简  介

  影片根据故事《高文爵士与绿衣骑士》改编,讲述亚瑟王在自己的宫廷里举行宴会。一位绿衣骑士前来向圆桌骑士挑战:有谁敢当场砍下他的头,并让他一年后回敬一斧。高文接受挑战,砍下了绿衣骑士的头。那具依然活着的躯体捡起头颅,回到绿色的教堂。一年以后,高文践约去寻找绿衣骑士。
Video
ID                                       : 1
Format                                   : AVC
Format/Info                              : Advanced Video Codec
Format profile                           :
Format settings                          : CABAC / 4 Ref Frames
Format settings, CABAC                   : Yes
Format settings, Reference frames        : 4 frames
Codec ID                                 : V_MPEG4/ISO/AVC
Duration                                 : 2 h 9 min
Bit rate                                 : 9 349 kb/s
Width                                    : 1 920 pixels
Height                                   : 1 036 pixels
Display aspect ratio                     : 1.85:1
Frame rate mode                          : Constant
Frame rate                               : 23.976 (24000/1001/189150) FPS
Color space                              : YUV
Chroma subsampling                       : 4:2:0
Bit depth                                : 8 bits
Scan type                                : Progressive
Bits/(Pixel*Frame)                       : 0.196
Stream size                              : 8.47 GiB (69%)
Writing library                          : x264 core 164 r3075 66a5bc1
Encoding settings                        : cabac=1 / ref=4 / deblock=1:-3:-3 / analyse=0x3:0x133 / me=umh / subme=9 / psy=1 / psy_rd=1.00:0.00 / mixed_ref=1 / me_range=16 / chroma_me=1 / trellis=2 / 8x8dct=1 / cqm=0 / deadzone=21,11 / fast_pskip=1 / chroma_qp_offset=-2 / threads=32 / lookahead_threads=2 / sliced_threads=0 / nr=0 / decimate=1 / interlaced=0 / bluray_compat=0 / constrained_intra=0 / bframes=3 / b_pyramid=2 / b_adapt=2 / b_bias=0 / direct=3 / weightb=1 / open_gop=0 / weightp=2 / keyint=250 / keyint_min=23 / scenecut=40 / intra_refresh=0 / rc_lookahead=60 / rc=crf / mbtree=1 / crf=15.5 / qcomp=0.60 / qpmin=0 / qpmax=69 / qpstep=4 / ip_ratio=1.40 / aq=1:1.00
Default                                  : Yes
Forced                                   : No

Audio #1
ID                                       : 2
Format                                   : MLP FBA 16-ch
Format/Info                              : Meridian Lossless Packing FBA with 16-channel presentation
Commercial name                          : Dolby TrueHD with Dolby Atmos
Codec ID                                 : A_TRUEHD
Duration                                 : 2 h 9 min
Bit rate mode                            : Variable
Bit rate                                 : 3 476 kb/s
Maximum bit rate                         : 5 781 kb/s
Channel(s)                               : 8 channels
Channel layout                           : L R C LFE Ls Rs Lb Rb
Sampling rate                            : 48.0 kHz
Frame rate                               : 1 200.000 FPS (40 SPF)
Compression mode                         : Lossless
Stream size                              : 3.15 GiB (26%)
Language                                 : English
Default                                  : Yes
Forced                                   : No
Number of dynamic objects                : 11
Bed channel count                        : 1 channel
Bed channel configuration                : LFE

Audio #2
ID                                       : 3
Format                                   : AC-3
Format/Info                              : Audio Coding 3
Commercial name                          : Dolby Digital
Format settings                          : Dolby Surround EX
Codec ID                                 : A_AC3
Duration                                 : 2 h 9 min
Bit rate mode                            : Constant
Bit rate                                 : 640 kb/s
Channel(s)                               : 6 channels
Channel layout                           : L R C LFE Ls Rs
Sampling rate                            : 48.0 kHz
Frame rate                               : 31.250 FPS (1536 SPF)
Compression mode                         : Lossy
Stream size                              : 594 MiB (5%)
Language                                 : English
Service kind                             : Complete Main
Default                                  : Yes
Forced                                   : No

Text #1
ID                                       : 4
Format                                   : PGS
Muxing mode                              : zlib
Codec ID                                 : S_HDMV/PGS
Codec ID/Info                            : Picture based subtitle format used on BDs/HD-DVDs
Duration                                 : 2 h 8 min
Bit rate                                 : 19.8 kb/s
Count of elements                        : 2374
Stream size                              : 18.3 MiB (0%)
Title                                    : English SDH
Language                                 : English
Default                                  : No
Forced                                   : No

Text #2
ID                                       : 5
Format                                   : PGS
Muxing mode                              : zlib
Codec ID                                 : S_HDMV/PGS
Codec ID/Info                            : Picture based subtitle format used on BDs/HD-DVDs
Duration                                 : 2 h 9 min
Bit rate                                 : 12.9 kb/s
Count of elements                        : 1506
Stream size                              : 11.9 MiB (0%)
Title                                    : Spanish
Language                                 : Spanish
Default                                  : No
Forced                                   : No

Menu
00:00:00.000                             : en:Chapter 01
00:06:54.956                             : en:Chapter 02
00:15:04.445                             : en:Chapter 03
00:25:13.220                             : en:Chapter 04
00:32:26.695                             : en:Chapter 05
00:41:46.504                             : en:Chapter 06
00:48:36.539                             : en:Chapter 07
00:54:26.096                             : en:Chapter 08
01:02:32.290                             : en:Chapter 09
01:09:30.917                             : en:Chapter 10
01:14:42.978                             : en:Chapter 11
01:22:58.974                             : en:Chapter 12
01:30:42.145                             : en:Chapter 13
01:37:10.533                             : en:Chapter 14
01:48:51.692                             : en:Chapter 15
02:00:00.485                             : en:Chapter 16
02:09:46.570                             : en:Chapter 17

b88b040870daf08e6d90333fb23ca972.jpg





                                                                                                                                                                                                        
                                                                                                                                                                                                                                                                                                                                                                                                                                                                                                                                                                                                                                                                                                                                                                                                                                                        
c662aaa97c7c88f0634113691d7d83bf.torrent (16.17 KB, 下载次数: 0)

回复

使用道具 举报

小黑屋|西西论坛

本网站所有资源来自网络,如无意中侵犯了您的权益,请发邮件至 [email protected],立即清除相关链接

GMT+8, 2021-10-20 12:10 , Processed in 0.119594 second(s), 17 queries .

Powered by Discuz! X3.2

© 2001-2013 Comsenz Inc.

快速回复 返回顶部 返回列表