西西论坛

 找回密码
 立即注册
搜索

允许 The.Story.of.a.ThreeDay.Pass.1968.1080p.BluRay.x264.FLAC.1.0-HANDJOB 7.11GB ...

[复制链接]
admin 发表于 6 天前 | 显示全部楼层 |阅读模式
允许 The.Story.of.a.ThreeDay.Pass.1968.1080p.BluRay.x264.FLAC.1.0-HANDJOB 7.11GB                                                                                                                                                                                                                                                                                                                                                                                                                                                                                                                                        -->
帖子完整标题:允许 The.Story.of.a.ThreeDay.Pass.1968.1080p.BluRay.x264.FLAC.1.0-HANDJOB 7.11GB



42db5d9664e241701ad4eaf71aef0ca4.jpg



◎译  名 允许/Permission, La/The Story of a Three-Day Pass
◎片  名 La Permission
◎年  代 1968
◎产  地 法国
◎类  别 剧情 / 爱情
◎语  言 法语
◎上映日期 1968
◎豆瓣评分 /10 from 0 users
◎豆瓣链接 
◎片  长 87 分钟
◎导  演 马文·范·皮伯斯 Melvin Van Peebles
◎编  剧 马文·范·皮伯斯 Melvin Van Peebles
◎主  演 哈里·贝尔德 Harry Baird
       妮科尔·贝尔热 Nicole Berger
       Pierre Doris Pierre Doris
       克里斯蒂安·马兰 Christian Marin

◎标  签 法国 | CC | 爱情 | Melvin_Van_Peebles | 黑人 | 马文·范·皮布尔斯 | 美国电影 | 种族

◎简  介

  A tale of innocence abroad, with racial overtones. Turner is a Black American, stationed at an air base in France. His captain thinks Turner's a good Negro, obedient, cheerful, and frightened, so he gives him a promotion and a three-day pass. On the first night, at a club, he meets Miriam, a White Parisian shop clerk. They dance, talk, and fantasize about each other. He's amazed when she agrees to spend the weekend with him at a Normandy beach hotel; in fact, he guesses she's a prostitute. She's not, they go; it's off season, they have their pick of rooms, and romance ensues. Then, racial misunderstanding and real prejudice complicate the weekend and its aftermath.—
Video
ID                                       : 1
Format                                   : AVC
Format/Info                              : Advanced Video Codec
Format profile                           :
Format settings                          : CABAC / 4 Ref Frames
Format settings, CABAC                   : Yes
Format settings, Reference frames        : 4 frames
Codec ID                                 : V_MPEG4/ISO/AVC
Duration                                 : 1 h 28 min
Bit rate                                 : 11.2 Mb/s
Width                                    : 1 800 pixels
Height                                   : 1 080 pixels
Display aspect ratio                     : 5:3
Frame rate mode                          : Constant
Frame rate                               : 23.976 (24000/1001/189150) FPS
Color space                              : YUV
Chroma subsampling                       : 4:2:0
Bit depth                                : 8 bits
Scan type                                : Progressive
Bits/(Pixel*Frame)                       : 0.241
Stream size                              : 6.92 GiB (97%)
Writing library                          : x264 core 157 r2935 545de2f
Encoding settings                        : cabac=1 / ref=4 / deblock=1:-3:-3 / analyse=0x3:0x133 / me=umh / subme=10 / psy=1 / psy_rd=1.00:0.00 / mixed_ref=1 / me_range=32 / chroma_me=1 / trellis=2 / 8x8dct=1 / cqm=0 / deadzone=21,11 / fast_pskip=0 / chroma_qp_offset=-2 / threads=18 / lookahead_threads=4 / sliced_threads=0 / nr=0 / decimate=0 / interlaced=0 / bluray_compat=0 / constrained_intra=0 / bframes=16 / b_pyramid=2 / b_adapt=2 / b_bias=0 / direct=3 / weightb=1 / open_gop=0 / weightp=1 / keyint=240 / keyint_min=24 / scenecut=40 / intra_refresh=0 / rc_lookahead=60 / rc=crf / mbtree=0 / crf=23.8 / qcomp=0.60 / qpmin=0 / qpmax=69 / qpstep=4 / vbv_maxrate=62500 / vbv_bufsize=78125 / crf_max=0.0 / nal_hrd=none / filler=0 / ip_ratio=1.40 / pb_ratio=1.30 / aq=2:1.00
Default                                  : Yes
Forced                                   : No
Color range                              : Limited
Color primaries                          : BT.709
Transfer characteristics                 : BT.709
Matrix coefficients                      : BT.709

Audio
ID                                       : 2
Format                                   : FLAC
Format/Info                              : Free Lossless Audio Codec
Codec ID                                 : A_FLAC
Duration                                 : 1 h 28 min
Bit rate mode                            : Variable
Bit rate                                 : 306 kb/s
Channel(s)                               : 1 channel
Sampling rate                            : 48.0 kHz
Frame rate                               : 11.719 FPS (4096 SPF)
Bit depth                                : 16 bits
Compression mode                         : Lossless
Stream size                              : 193 MiB (3%)
Writing library                          : libFLAC 1.2.1 (UTC 2007-09-17)
Language                                 : English
Default                                  : Yes
Forced                                   : No

Text #1
ID                                       : 3
Format                                   : UTF-8
Codec ID                                 : S_TEXT/UTF8
Codec ID/Info                            : UTF-8 Plain Text
Duration                                 : 1 h 14 min
Bit rate                                 : 8 b/s
Count of elements                        : 168
Stream size                              : 4.44 KiB (0%)
Title                                    : for French spoken parts
Language                                 : English
Default                                  : Yes
Forced                                   : No

Text #2
ID                                       : 4
Format                                   : UTF-8
Codec ID                                 : S_TEXT/UTF8
Codec ID/Info                            : UTF-8 Plain Text
Duration                                 : 1 h 23 min
Bit rate                                 : 32 b/s
Count of elements                        : 670
Stream size                              : 19.6 KiB (0%)
Language                                 : English
Default                                  : No
Forced                                   : No

Text #3
ID                                       : 5
Format                                   : UTF-8
Codec ID                                 : S_TEXT/UTF8
Codec ID/Info                            : UTF-8 Plain Text
Duration                                 : 1 h 23 min
Bit rate                                 : 36 b/s
Count of elements                        : 771
Stream size                              : 22.2 KiB (0%)
Title                                    : SDH
Language                                 : English
Default                                  : No
Forced                                   : No

Menu
00:00:00.000                             : :Chapter 1
00:02:37.157                             : :Chapter 2
00:08:38.560                             : :Chapter 3
00:16:12.430                             : :Chapter 4
00:21:00.468                             : :Chapter 5
00:25:26.859                             : :Chapter 6
00:31:48.407                             : :Chapter 7
00:38:57.961                             : :Chapter 8
00:44:31.586                             : :Chapter 9
00:49:29.884                             : :Chapter 10
00:55:00.130                             : :Chapter 11
00:59:35.238                             : :Chapter 12
01:06:33.031                             : :Chapter 13
01:13:07.842                             : :Chapter 14
01:17:55.838                             : :Chapter 15

13330ef140b6fdd61b2a675e9553cfbc.png

[/url]a624fbf55c2a300149a66b0364036477.png

[/url]



                                                                                                                                                                                                        
                                                                                                                                                                                                                                                                                                                                                                                                                                                                                                                                                                                                                                                                                                                                                                                                                                                        
395e51708dcf35fecf5e20ba71e3e02b.torrent (18.42 KB, 下载次数: 0)

回复

使用道具 举报

小黑屋|西西论坛

本网站所有资源来自网络,如无意中侵犯了您的权益,请发邮件至 [email protected],立即清除相关链接

GMT+8, 2021-10-20 12:29 , Processed in 0.093969 second(s), 17 queries .

Powered by Discuz! X3.2

© 2001-2013 Comsenz Inc.

快速回复 返回顶部 返回列表