西西论坛

 找回密码
 立即注册
搜索

抢劫犯 The.Crew.2015.FRENCH.1080p.BluRay.x264.DD5.1-TayTO 8.39GB

[复制链接]
admin 发表于 2021-10-14 16:22:43 | 显示全部楼层 |阅读模式
抢劫犯 The.Crew.2015.FRENCH.1080p.BluRay.x264.DD5.1-TayTO 8.39GB                                                                                                                                                                                                                                                                                                                                                                                                                                                                                                                                        -->
帖子完整标题:抢劫犯 The.Crew.2015.FRENCH.1080p.BluRay.x264.DD5.1-TayTO 8.39GB



0a70dec55029289f8871cb6627102695.jpg



◎译  名 抢劫犯/The Crew/重装匪帮
◎片  名 Braqueurs
◎年  代 2015
◎产  地 法国
◎类  别 动作
◎语  言 法语
◎上映日期 2015-10-07(韩国釜山电影节) / 2016-05-04(法国)
◎豆瓣评分 6.3/10 from 213 users
◎豆瓣链接 
◎片  长 81分钟
◎导  演 朱利安·勒克莱克 Julien Leclercq
◎编  剧 朱利安·勒克莱克 Julien Leclercq
◎主  演 塞米·鲍亚吉拉 Sami Bouajila
       纪尧姆·谷伊 Guillaume Gouix
       阿丽斯·德·朗克桑 Alice de Lencquesaing
       拉巴·纳伊·乌费拉 Rabah Nait Oufella

◎标  签 犯罪 | 法国 | 动作 | 枪战 | 法国电影 | 2016 | 真实 | 蓝光

◎简  介

  几名警察抢劫了毒贩的赃物,本想做“盗亦有道”的侠盗,不料深陷混乱,最终不得不为自己的行为付出代价。
Video
ID                                       : 1
Format                                   : AVC
Format/Info                              : Advanced Video Codec
Format profile                           :
Format settings                          : CABAC / 5 Ref Frames
Format settings, CABAC                   : Yes
Format settings, Reference frames        : 5 frames
Codec ID                                 : V_MPEG4/ISO/AVC
Duration                                 : 1 h 20 min
Bit rate                                 : 13.8 Mb/s
Width                                    : 1 920 pixels
Height                                   : 804 pixels
Display aspect ratio                     : 2.40:1
Frame rate mode                          : Constant
Frame rate                               : 24.000 FPS
Color space                              : YUV
Chroma subsampling                       : 4:2:0
Bit depth                                : 8 bits
Scan type                                : Progressive
Bits/(Pixel*Frame)                       : 0.373
Stream size                              : 7.81 GiB (93%)
Writing library                          : x264 core 164 r3075 --> UHD
Encoding settings                        : cabac=1 / ref=5 / deblock=1:-3:-3 / analyse=0x3:0x133 / me=umh / subme=10 / psy=1 / psy_rd=1.05:0.00 / mixed_ref=1 / me_range=32 / chroma_me=1 / trellis=2 / 8x8dct=1 / cqm=0 / deadzone=21,11 / fast_pskip=0 / chroma_qp_offset=-2 / threads=6 / lookahead_threads=1 / sliced_threads=0 / nr=0 / decimate=0 / interlaced=0 / bluray_compat=0 / constrained_intra=0 / bframes=12 / b_pyramid=2 / b_adapt=2 / b_bias=0 / direct=1 / weightb=1 / open_gop=0 / weightp=2 / keyint=250 / keyint_min=23 / scenecut=40 / intra_refresh=0 / rc_lookahead=60 / rc=crf / mbtree=0 / crf=16.3 / qcomp=0.60 / qpmin=0 / qpmax=69 / qpstep=4 / vbv_maxrate=62500 / vbv_bufsize=78125 / crf_max=0.0 / nal_hrd=none / filler=0 / ip_ratio=1.30 / pb_ratio=1.20 / aq=3:0.78
Language                                 : French
Default                                  : Yes
Forced                                   : No
Color range                              : Limited
Color primaries                          : BT.709
Transfer characteristics                 : BT.709
Matrix coefficients                      : BT.709

Audio
ID                                       : 2
Format                                   : E-AC-3
Format/Info                              : Enhanced AC-3
Commercial name                          : Dolby Digital Plus
Codec ID                                 : A_EAC3
Duration                                 : 1 h 20 min
Bit rate mode                            : Constant
Bit rate                                 : 1 024 kb/s
Channel(s)                               : 6 channels
Channel layout                           : L R C LFE Ls Rs
Sampling rate                            : 48.0 kHz
Frame rate                               : 31.250 FPS (1536 SPF)
Compression mode                         : Lossy
Stream size                              : 592 MiB (7%)
Language                                 : French
Service kind                             : Complete Main
Default                                  : Yes
Forced                                   : No

Text #1
ID                                       : 3
Format                                   : UTF-8
Codec ID                                 : S_TEXT/UTF8
Codec ID/Info                            : UTF-8 Plain Text
Duration                                 : 1 h 19 min
Bit rate                                 : 26 b/s
Count of elements                        : 640
Stream size                              : 15.6 KiB (0%)
Language                                 : English
Default                                  : No
Forced                                   : No

Text #2
ID                                       : 4
Format                                   : PGS
Muxing mode                              : zlib
Codec ID                                 : S_HDMV/PGS
Codec ID/Info                            : Picture based subtitle format used on BDs/HD-DVDs
Duration                                 : 1 h 16 min
Bit rate                                 : 20.9 kb/s
Count of elements                        : 1550
Stream size                              : 11.5 MiB (0%)
Language                                 : French
Default                                  : No
Forced                                   : No

Text #3
ID                                       : 5
Format                                   : UTF-8
Codec ID                                 : S_TEXT/UTF8
Codec ID/Info                            : UTF-8 Plain Text
Duration                                 : 1 h 16 min
Bit rate                                 : 33 b/s
Count of elements                        : 676
Stream size                              : 18.8 KiB (0%)
Language                                 : Romanian
Default                                  : No
Forced                                   : No

Menu
00:00:00.000                             : :Chapter 01
00:05:26.458                             : :Chapter 02
00:12:31.042                             : :Chapter 03
00:17:55.083                             : :Chapter 04
00:25:41.458                             : :Chapter 05
00:30:13.708                             : :Chapter 06
00:40:29.125                             : :Chapter 07
00:47:19.792                             : :Chapter 08
00:54:03.458                             : :Chapter 09
00:59:32.500                             : :Chapter 10
01:08:16.292                             : :Chapter 11
01:15:11.375                             : :Chapter 12
01:20:47.708                             : :Chapter 13

a2beb9d88a36553a49d7d59cc7430630.png

[/url]1b1dc8af96643b57f77f90980503ef9c.png

[/url]f7d9eac9b902e8b31e30c6ea81c5f1cb.png

[/url]



                                                                                                                                                                                                        
                                                                                                                                                                                                                                                                                                                                                                                                                                                                                                                                                                                                                                                                                                                                                                                                                                                        
3d1ceff4d2c06b2fb5f4637ccb6fd0d4.torrent (21.61 KB, 下载次数: 0)

回复

使用道具 举报

小黑屋|西西论坛

本网站所有资源来自网络,如无意中侵犯了您的权益,请发邮件至 [email protected],立即清除相关链接

GMT+8, 2021-10-26 01:30 , Processed in 0.115443 second(s), 17 queries .

Powered by Discuz! X3.2

© 2001-2013 Comsenz Inc.

快速回复 返回顶部 返回列表