西西论坛

 找回密码
 立即注册
搜索

黑棒大联盟 The.Bingo.Long.Traveling.All-Stars.and.Motor.Kings.1976.1080p.BluRay. ...

[复制链接]
admin 发表于 6 天前 | 显示全部楼层 |阅读模式
黑棒大联盟 The.Bingo.Long.Traveling.All-Stars.and.Motor.Kings.1976.1080p.BluRay.x264.                                                                                                                                                                                                                                                                                                                                                                                                                                                                                                                                        -->
帖子完整标题:黑棒大联盟 The.Bingo.Long.Traveling.All-Stars.and.Motor.Kings.1976.1080p.BluRay.x264.DTS-FGT 10.07GB



ce7dc4f26346930f30925ab68880ddca.jpg



◎译  名 黑棒大联盟
◎片  名 The Bingo Long Traveling All-Stars & Motor Kings
◎年  代 1976
◎产  地 美国
◎类  别 喜剧 / 运动
◎语  言 英语
◎上映日期 1976-07-16
◎豆瓣评分 /10 from 0 users
◎豆瓣链接 
◎片  长 110 分钟
◎导  演 约翰·班德汉姆 John Badham
◎编  剧 马修·罗宾斯 Matthew Robbins / 哈尔·巴伍德 Hal Barwood
◎主  演 玛西亚·麦克布朗 Marcia McBroom
       特德·罗斯 Ted Ross
       斯坦·肖 Stan Shaw
       Morgan Roberts Morgan Roberts
       雷昂·华格纳 Leon Wagner
       Fred Covington Fred Covington
       理查德·普赖尔 Richard Pryor
       肯·佛瑞 Ken Foree
       詹姆斯·厄尔·琼斯 James Earl Jones
       比利·迪·威廉姆斯 Billy Dee Williams
       约翰·麦柯瑞 John McCurry
       Mabel King Mabel King
       山姆·劳斯 Sam Laws
       托尼·伯顿 Tony Burton
       安娜卡普莉 Ahna Capri
       Jophery C. Brown Jophery C. Brown
       Alvin Childress Alvin Childress
       Brooks Clift Brooks Clift
       乔尔·弗吕莱恩 Joel Fluellen
       萨丽娜·C·格兰特 Sarina C. Grant
       Emmett Ashford Emmett Ashford
       杰斯特·海尔斯顿 Jester Hairston
       Theodore Lehmann Theodore Lehmann
       Otis Day Otis Day
       Carl Gordon Carl Gordon

◎标  签 D约翰·班德汉姆 | 美国 | 被忽视的片子 | 喜剧 | M美国 | Comedy | Blaxploitation

◎简  介

  暂无相关剧情介绍
Video
ID                                       : 1
Format                                   : AVC
Format/Info                              : Advanced Video Codec
Format profile                           :
Format settings                          : CABAC / 4 Ref Frames
Format settings, CABAC                   : Yes
Format settings, Reference frames        : 4 frames
Codec ID                                 : V_MPEG4/ISO/AVC
Duration                                 : 1 h 50 min
Bit rate                                 : 11.5 Mb/s
Width                                    : 1 920 pixels
Height                                   : 1 040 pixels
Display aspect ratio                     : 1.85:1
Frame rate mode                          : Constant
Frame rate                               : 23.976 (24000/1001/189150) FPS
Color space                              : YUV
Chroma subsampling                       : 4:2:0
Bit depth                                : 8 bits
Scan type                                : Progressive
Bits/(Pixel*Frame)                       : 0.240
Stream size                              : 8.90 GiB (88%)
Writing library                          : x264 core 148 r2795M aaa9aa8
Encoding settings                        : cabac=1 / ref=4 / deblock=1:-2:-2 / analyse=0x3:0x113 / me=umh / subme=9 / psy=1 / psy_rd=1.00:0.15 / mixed_ref=1 / me_range=16 / chroma_me=1 / trellis=2 / 8x8dct=1 / cqm=0 / deadzone=21,11 / fast_pskip=1 / chroma_qp_offset=-3 / threads=24 / lookahead_threads=3 / sliced_threads=0 / nr=0 / decimate=1 / interlaced=0 / bluray_compat=0 / constrained_intra=0 / bframes=3 / b_pyramid=2 / b_adapt=1 / b_bias=0 / direct=3 / weightb=1 / open_gop=0 / weightp=2 / keyint=250 / keyint_min=25 / scenecut=40 / intra_refresh=0 / rc_lookahead=50 / rc=2pass / mbtree=1 / bitrate=11500 / ratetol=1.0 / qcomp=0.60 / qpmin=0 / qpmax=69 / qpstep=4 / cplxblur=20.0 / qblur=0.5 / vbv_maxrate=31250 / vbv_bufsize=31250 / nal_hrd=none / filler=0 / ip_ratio=1.40 / aq=1:1.00
Language                                 : English
Default                                  : Yes
Forced                                   : No

Audio
ID                                       : 2
Format                                   : DTS
Format/Info                              : Digital Theater Systems
Codec ID                                 : A_DTS
Duration                                 : 1 h 50 min
Bit rate mode                            : Constant
Bit rate                                 : 1 509 kb/s
Channel(s)                               : 1 channel
Channel layout                           : C
Sampling rate                            : 48.0 kHz
Frame rate                               : 93.750 FPS (512 SPF)
Bit depth                                : 16 bits
Compression mode                         : Lossy
Stream size                              : 1.17 GiB (12%)
Language                                 : English
Default                                  : Yes
Forced                                   : No

Text
ID                                       : 3
Format                                   : UTF-8
Codec ID                                 : S_TEXT/UTF8
Codec ID/Info                            : UTF-8 Plain Text
Duration                                 : 1 h 50 min
Bit rate                                 : 79 b/s
Count of elements                        : 1537
Stream size                              : 64.0 KiB (0%)
Language                                 : English
Default                                  : Yes
Forced                                   : No

Menu
00:00:00.000                             : Chapter 01
00:09:05.753                             : Chapter 02
00:18:28.524                             : Chapter 03
00:28:02.180                             : Chapter 04
00:37:33.584                             : Chapter 05
00:47:15.916                             : Chapter 06
00:54:49.244                             : Chapter 07
01:04:50.428                             : Chapter 08
01:12:35.559                             : Chapter 09
01:21:19.082                             : Chapter 10
01:32:56.529                             : Chapter 11
01:42:11.583                             : Chapter 12

846ac8314c68d928e628b1081accfff1.png

[/url]3b5d8b22a606897d89227c9016e79569.png

[/url]1942f1d2348077db23eb5ac1a17f5f8f.png

[/url]



                                                                                                                                                                                                        
                                                                                                                                                                                                                                                                                                                                                                                                                                                                                                                                                                                                                                                                                                                                                                                                                                                        
ec26cd982052f9baec5b8f17d155564f.torrent (13.28 KB, 下载次数: 0)

回复

使用道具 举报

小黑屋|西西论坛

本网站所有资源来自网络,如无意中侵犯了您的权益,请发邮件至 [email protected],立即清除相关链接

GMT+8, 2021-10-20 11:53 , Processed in 0.107528 second(s), 17 queries .

Powered by Discuz! X3.2

© 2001-2013 Comsenz Inc.

快速回复 返回顶部 返回列表