西西论坛

 找回密码
 立即注册
搜索

监狱 Prison.1949.SWEDISH.1080p.BluRay.x264.FLAC.1.0-HANDJOB 6.57GB

[复制链接]
admin 发表于 6 天前 | 显示全部楼层 |阅读模式
监狱 Prison.1949.SWEDISH.1080p.BluRay.x264.FLAC.1.0-HANDJOB 6.57GB                                                                                                                                                                                                                                                                                                                                                                                                                                                                                                                                        -->
帖子完整标题:监狱 Prison.1949.SWEDISH.1080p.BluRay.x264.FLAC.1.0-HANDJOB 6.57GB



d7aa1e63afaef37612ad1024c554f30e.jpg



◎译  名 监狱/Prison
◎片  名 F?ngelse
◎年  代 1949
◎产  地 瑞典
◎类  别 剧情
◎语  言 瑞典语
◎上映日期 1949-03-19
◎豆瓣评分 7.4/10 from 1590 users
◎豆瓣链接 
◎片  长 98 分钟
◎导  演 英格玛·伯格曼 Ingmar Bergman
◎编  剧 英格玛·伯格曼 Ingmar Bergman
◎主  演 多丽丝·斯韦德隆德 Doris Svedlund
       比耶·马尔姆斯滕 Birger Malmsten
       埃娃·亨宁 Eva Henning
       哈塞·埃克曼 Hasse Ekman
       斯蒂格·奥林 Stig Olin
       伊尔玛·克里斯滕松 Irma Christenson
       Segol Mann Segol Mann
       B?rje Mellvig B?rje Mellvig
       Torsten Lilliecrona Torsten Lilliecrona
       Inger Juel Inger Juel
       Bibi Lindqvist Bibi Lindqvist
       Marianne L?fgren Marianne L?fgren
       Curt Masreliez Curt Masreliez
       乌尔夫·帕姆 Ulf Palme
       Lasse Sarri Lasse Sarri
       Arne Ragneborn Arne Ragneborn
       Harry Karlsson Harry Karlsson
       Gunilla Klosterborg Gunilla Klosterborg
       Britta Holmberg Britta Holmberg
       安德斯·亨里克森 Anders Henrikson
       John W. Bj?rling John W. Bj?rling
       Anita Blom Anita Blom
       Britta Brunius Britta Brunius
       G?sta Ericsson G?sta Ericsson
       肯尼·凡特 Kenne Fant
       奥克·弗里德尔 ?ke Fridell
       ?ke Engfeldt ?ke Engfeldt
       Karl ?hman Karl ?hman

◎标  签 英格玛·伯格曼 | 瑞典 | 伯格曼 | 1949 | IngmarBergman | 1940s | Ingmar_Bergman | 黑白

◎简  介

  A movie director is approached by his old math teacher with a great movie idea: the Devil declares that the Earth is hell. The director rejects the idea, but subsequent events in the life of a writer, a friend of the director's, and a young prostitute he loves seem to prove the math teacher's idea.
Video
ID                                       : 1
Format                                   : AVC
Format/Info                              : Advanced Video Codec
Format profile                           :
Format settings                          : CABAC / 5 Ref Frames
Format settings, CABAC                   : Yes
Format settings, Reference frames        : 5 frames
Codec ID                                 : V_MPEG4/ISO/AVC
Duration                                 : 1 h 20 min
Bit rate                                 : 11.4 Mb/s
Width                                    : 1 440 pixels
Height                                   : 1 080 pixels
Display aspect ratio                     : 4:3
Frame rate mode                          : Constant
Frame rate                               : 24.000 FPS
Color space                              : YUV
Chroma subsampling                       : 4:2:0
Bit depth                                : 8 bits
Scan type                                : Progressive
Bits/(Pixel*Frame)                       : 0.305
Stream size                              : 6.40 GiB (97%)
Writing library                          : x264 core 157 r2935 545de2f
Encoding settings                        : cabac=1 / ref=5 / deblock=1:-3:-3 / analyse=0x3:0x133 / me=umh / subme=10 / psy=1 / psy_rd=1.00:0.00 / mixed_ref=1 / me_range=32 / chroma_me=1 / trellis=2 / 8x8dct=1 / cqm=0 / deadzone=21,11 / fast_pskip=0 / chroma_qp_offset=-2 / threads=34 / lookahead_threads=8 / sliced_threads=0 / nr=0 / decimate=0 / interlaced=0 / bluray_compat=0 / constrained_intra=0 / bframes=16 / b_pyramid=2 / b_adapt=2 / b_bias=0 / direct=3 / weightb=1 / open_gop=0 / weightp=2 / keyint=240 / keyint_min=24 / scenecut=40 / intra_refresh=0 / rc_lookahead=60 / rc=crf / mbtree=0 / crf=24.0 / qcomp=0.65 / qpmin=0 / qpmax=69 / qpstep=4 / vbv_maxrate=62500 / vbv_bufsize=78125 / crf_max=0.0 / nal_hrd=none / filler=0 / ip_ratio=1.40 / pb_ratio=1.30 / aq=2:0.80
Default                                  : Yes
Forced                                   : No
Color range                              : Limited
Color primaries                          : BT.709
Transfer characteristics                 : BT.709
Matrix coefficients                      : BT.709

Audio
ID                                       : 2
Format                                   : FLAC
Format/Info                              : Free Lossless Audio Codec
Codec ID                                 : A_FLAC
Duration                                 : 1 h 20 min
Bit rate mode                            : Variable
Bit rate                                 : 293 kb/s
Channel(s)                               : 1 channel
Channel layout                           : C
Sampling rate                            : 48.0 kHz
Frame rate                               : 11.719 FPS (4096 SPF)
Bit depth                                : 16 bits
Compression mode                         : Lossless
Stream size                              : 169 MiB (3%)
Writing library                          : libFLAC 1.2.1 (UTC 2007-09-17)
Language                                 : Swedish
Default                                  : Yes
Forced                                   : No

Text
ID                                       : 3
Format                                   : UTF-8
Codec ID                                 : S_TEXT/UTF8
Codec ID/Info                            : UTF-8 Plain Text
Duration                                 : 1 h 17 min
Bit rate                                 : 51 b/s
Count of elements                        : 712
Stream size                              : 29.0 KiB (0%)
Language                                 : English
Default                                  : Yes
Forced                                   : No

Menu
00:00:00.000                             : :On Set
00:08:18.292                             : :Some Questions
00:11:15.292                             : :The Film
00:16:57.375                             : :Temple of the Ridiculous
00:20:47.583                             : :Are You Tired?
00:24:36.083                             : :We\'re From the Police
00:31:19.583                             : :A Close Shave
00:36:33.000                             : :I Won\'t Eat You
00:41:23.833                             : :A Cinematograph
00:47:52.500                             : on\'t Be Afraid
00:53:23.208                             : :What\'s Wrong?
00:59:38.833                             : :A True Gentleman
01:01:27.750                             : :So, You\'re Back
01:05:33.125                             : ook, It\'s Alf
01:09:33.667                             : :No Pain
01:14:31.750                             : :I\'ve Come Home
01:18:57.208                             : :End Credits

324ce179b31bab0aac8f40124b64ce9d.png

[/url]1eb0919b54651e6f0912908ce184b28b.png

[/url]00ed7c5225e16aa413242e92c389d522.png

[/url]



                                                                                                                                                                                                        
                                                                                                                                                                                                                                                                                                                                                                                                                                                                                                                                                                                                                                                                                                                                                                                                                                                        
97fc613b446c98b85c4909c805159139.torrent (17.05 KB, 下载次数: 0)

回复

使用道具 举报

小黑屋|西西论坛

本网站所有资源来自网络,如无意中侵犯了您的权益,请发邮件至 [email protected],立即清除相关链接

GMT+8, 2021-10-20 11:26 , Processed in 0.132437 second(s), 17 queries .

Powered by Discuz! X3.2

© 2001-2013 Comsenz Inc.

快速回复 返回顶部 返回列表