西西论坛

 找回密码
 立即注册
搜索

海盗的未婚妻 A.Very.Curious.Girl.1969.FRENCH.1080p.BluRay.x264.AAC2.0-PTP 4.93GB ...

[复制链接]
admin 发表于 7 天前 | 显示全部楼层 |阅读模式
海盗的未婚妻 A.Very.Curious.Girl.1969.FRENCH.1080p.BluRay.x264.AAC2.0-PTP 4.93GB                                                                                                                                                                                                                                                                                                                                                                                                                                                                                                                                        -->
帖子完整标题:海盗的未婚妻 A.Very.Curious.Girl.1969.FRENCH.1080p.BluRay.x264.AAC2.0-PTP 4.93GB



419a530861ec3ae3a119c84d6baa54bf.jpg



◎译  名 海盗的未婚妻/Pirate's Fiancée
◎片  名 La fiancée du pirate
◎年  代 1969
◎产  地 法国
◎类  别 剧情
◎语  言 法语
◎上映日期 1970-03-16
◎豆瓣评分 /10 from 0 users
◎豆瓣链接 
◎片  长 107 分钟
◎导  演 奈丽·卡普兰 Nelly Kaplan
◎编  剧 奈丽·卡普兰 Nelly Kaplan / 克洛德·马科夫斯基 Claude Makovski
◎主  演 贝纳德特·拉封 Bernadette Lafont
       乔治·热雷 Georges Géret
       Henry Czarniak Henry Czarniak
       克莱尔·莫里耶 Claire Maurier
       Francis Lax Francis Lax
       雅克·马兰 Jacques Marin
       帕斯卡尔·马佐蒂 Pascal Mazzotti
       马塞尔·佩雷斯 Marcel Pérès
       Claire Olivier Claire Olivier
       让·帕雷代 Jean Parédès
       朱利安·吉约马尔 Julien Guiomar
       吉尔贝特·热尼亚 Gilberte Géniat
       迈克尔·康斯坦丁 Michel Constantin
       费尔南·贝尔塞 Fernand Berset
       路易·马勒 Louis Malle
       克洛德·马科夫斯基 Claude Makovski
       Micha Bayard Micha Bayard

◎标  签 法国 | 法国电影 | 1960s | 奈丽·卡普兰 | 1969 | 贝尔纳戴特·拉封 | 女性导演 |

◎简  介

  本片虽被认为是一部片,但在商业上却非常成功,导演手法完美,娴熟,不靠噱头吸引观众,因为它具有扣人心弦的活力,充满正义感。本片还被认为“是当代西方电影的典范作品,是以惊险片,侦探片和闹剧片和形式表现了严肃的内容”。因为曾被纽约影评家评为1967年度最佳影片。加夫拉斯为最佳导演。
  
  影片以浓重的笔墨,抨击了那些满口仁义道德,实则荒淫无度的人们的丑恶行径,赞美了玛丽这位穷苦出身的姑娘敢于反抗的精神。从她的遭遇,人们可以看到法国社会存在的很多肮脏和不公平的状况。导演内利·卡普朗(女),1931年出生于布宜诺斯艾利斯,本片是她的故事处女作。贝尔纳戴特·拉封是法国著名的电影女演员,1957年主演《顽童》。本片的成功使她又一次成为电影界最引人注目的演员之一。她艺术修养很深,她扮演的角色都十分自然,优美。
Video
ID                                       : 1
Format                                   : AVC
Format/Info                              : Advanced Video Codec
Format profile                           :
Format settings                          : CABAC / 4 Ref Frames
Format settings, CABAC                   : Yes
Format settings, Reference frames        : 4 frames
Codec ID                                 : V_MPEG4/ISO/AVC
Duration                                 : 1 h 46 min
Bit rate                                 : 6 522 kb/s
Width                                    : 1 796 pixels
Height                                   : 1 080 pixels
Display aspect ratio                     : 5:3
Frame rate mode                          : Constant
Frame rate                               : 24.000 FPS
Color space                              : YUV
Chroma subsampling                       : 4:2:0
Bit depth                                : 8 bits
Scan type                                : Progressive
Bits/(Pixel*Frame)                       : 0.140
Stream size                              : 4.85 GiB (98%)
Writing library                          : x264 core 157 r2935 545de2f
Encoding settings                        : cabac=1 / ref=4 / deblock=1:-3:-3 / analyse=0x3:0x133 / me=umh / subme=10 / psy=1 / psy_rd=1.00:0.00 / mixed_ref=1 / me_range=32 / chroma_me=1 / trellis=2 / 8x8dct=1 / cqm=0 / deadzone=21,11 / fast_pskip=0 / chroma_qp_offset=-2 / threads=18 / lookahead_threads=4 / sliced_threads=0 / nr=0 / decimate=0 / interlaced=0 / bluray_compat=0 / constrained_intra=0 / bframes=16 / b_pyramid=2 / b_adapt=2 / b_bias=0 / direct=3 / weightb=1 / open_gop=0 / weightp=2 / keyint=240 / keyint_min=24 / scenecut=40 / intra_refresh=0 / rc_lookahead=60 / rc=crf / mbtree=0 / crf=24.0 / qcomp=0.60 / qpmin=0 / qpmax=69 / qpstep=4 / vbv_maxrate=62500 / vbv_bufsize=78125 / crf_max=0.0 / nal_hrd=none / filler=0 / ip_ratio=1.40 / pb_ratio=1.30 / aq=2:1.00
Default                                  : Yes
Forced                                   : No
Color range                              : Limited
Color primaries                          : BT.709
Transfer characteristics                 : BT.709
Matrix coefficients                      : BT.709

Audio
ID                                       : 2
Format                                   : AAC LC
Format/Info                              : Advanced Audio Codec Low Complexity
Codec ID                                 : A_AAC-2
Duration                                 : 1 h 46 min
Bit rate                                 : 91.4 kb/s
Channel(s)                               : 2 channels
Channel layout                           : L R
Sampling rate                            : 48.0 kHz
Frame rate                               : 46.875 FPS (1024 SPF)
Compression mode                         : Lossy
Stream size                              : 69.6 MiB (1%)
Language                                 : French
Default                                  : Yes
Forced                                   : No

Text #1
ID                                       : 3
Format                                   : UTF-8
Codec ID                                 : S_TEXT/UTF8
Codec ID/Info                            : UTF-8 Plain Text
Duration                                 : 1 h 44 min
Bit rate                                 : 41 b/s
Count of elements                        : 1057
Stream size                              : 32.0 KiB (0%)
Title                                    : SRT
Language                                 : English
Default                                  : Yes
Forced                                   : No

Text #2
ID                                       : 4
Format                                   : PGS
Muxing mode                              : zlib
Codec ID                                 : S_HDMV/PGS
Codec ID/Info                            : Picture based subtitle format used on BDs/HD-DVDs
Duration                                 : 1 h 44 min
Bit rate                                 : 26.5 kb/s
Count of elements                        : 2116
Stream size                              : 19.7 MiB (0%)
Language                                 : English
Default                                  : No
Forced                                   : No

Menu
00:00:00.000                             : :Marie
00:06:19.083                             : :Mort de la m?¨re
00:17:14.500                             : es Fun??railles
00:31:48.500                             : es affaires commencent...
00:38:45.792                             : e cin??ma d\'Andr??
00:43:27.042                             : e repr??sentant
00:51:57.583                             : es affaires prosp?¨rent
00:59:36.375                             : a punition de Julien
01:06:06.083                             : a d??claration de Gaston
01:13:38.875                             : e conseil municipal
01:23:13.083                             : :Confidences
01:29:47.042                             : a revanche de Marie

8ac5d00aa3922a9741310c43a7ebe40f.png

[/url]9c698193f98817c7f27351f21fd7a6d2.png

[/url][/url]



                                                                                                                                                                                                        
                                                                                                                                                                                                                                                                                                                                                                                                                                                                                                                                                                                                                                                                                                                                                                                                                                                        
64a4b411499fe7843cf523d0f741535e.torrent (25.3 KB, 下载次数: 0)

回复

使用道具 举报

小黑屋|西西论坛

本网站所有资源来自网络,如无意中侵犯了您的权益,请发邮件至 [email protected],立即清除相关链接

GMT+8, 2021-10-20 12:49 , Processed in 0.117000 second(s), 17 queries .

Powered by Discuz! X3.2

© 2001-2013 Comsenz Inc.

快速回复 返回顶部 返回列表