西西论坛

 找回密码
 立即注册
搜索

原初卡司专辑:《伙伴们》 Original.Cast.Album.Company.1970.1080p.BluRay.x264.AAC1. ...

[复制链接]
admin 发表于 7 天前 | 显示全部楼层 |阅读模式
原初卡司专辑:《伙伴们》 Original.Cast.Album.Company.1970.1080p.BluRay.x264.AAC1.0-HANDJOB 4                                                                                                                                                                                                                                                                                                                                                                                                                                                                                                                                        -->
帖子完整标题:原初卡司专辑:《伙伴们》 Original.Cast.Album.Company.1970.1080p.BluRay.x264.AAC1.0-HANDJOB 4.25GB



77908b8d485294d5d2473f300d5fe8de.jpg



◎译  名 原初卡司专辑:《伙伴们》
◎片  名 Original Cast Album Company
◎年  代 1970
◎产  地 美国
◎类  别 纪录片
◎语  言 英语
◎上映日期 
◎豆瓣评分 /10 from 0 users
◎豆瓣链接 
◎片  长 58 分钟
◎导  演 彭尼贝克 D.A. Pennebaker
◎主  演 乔治·菲尔特 George Furth
       Teri Ralston Teri Ralston
       唐娜·麦可契尼 Donna McKechnie
       Steve Elmore Steve Elmore
       芭芭拉·蓓丽 Barbara Barrie
       哈罗德·普林斯 Harold Prince
       查尔斯·布拉斯韦尔 Charles Braswell
       查尔斯·金布罗 Charles Kimbrough
       史蒂芬·桑德海姆 Stephen Sondheim
       Beth Howland Beth Howland
       Pamela Myers Pamela Myers
       约翰·库宁汉姆 John Cunningham
       伊莲妮·斯楚奇 Elaine Stritch
       Harold Hastings Harold Hastings
       乔治·科 George Coe
       Susan Browning Susan Browning
       迪恩·琼斯 Dean Jones

◎标  签 Documentary | 美国 | 纪录片 | Pennebaker | Musical | CC | 1970 | US

◎简  介

  Stephen Sondheim's musical "Company" opened on Broadway in the Spring of 1970, and tradition dictates that the cast recording is done on the first Sunday after opening night. D.A. Pennebaker, the now-legendary documentarian, filmed the production of the original cast recording, the back and forth between Sondheim and the performers, and the dynamic of trying to record live performance. The film climaxes with Elaine Stritch's performance of "The Ladies Who Lunch". The show won 6 Tony Awards including "Best Musical" and ran for two years on Broadway.
Video
ID                                       : 1
Format                                   : AVC
Format/Info                              : Advanced Video Codec
Format profile                           :
Format settings                          : CABAC / 5 Ref Frames
Format settings, CABAC                   : Yes
Format settings, Reference frames        : 5 frames
Codec ID                                 : V_MPEG4/ISO/AVC
Duration                                 : 53 min 0 s
Bit rate                                 : 11.2 Mb/s
Width                                    : 1 440 pixels
Height                                   : 1 080 pixels
Display aspect ratio                     : 4:3
Frame rate mode                          : Constant
Frame rate                               : 23.976 (24000/1001/189150) FPS
Color space                              : YUV
Chroma subsampling                       : 4:2:0
Bit depth                                : 8 bits
Scan type                                : Progressive
Bits/(Pixel*Frame)                       : 0.300
Stream size                              : 4.14 GiB (97%)
Writing library                          : x264 core 157 r2935 545de2f
Encoding settings                        : cabac=1 / ref=5 / deblock=1:-3:-3 / analyse=0x3:0x133 / me=umh / subme=11 / psy=1 / psy_rd=1.00:0.00 / mixed_ref=1 / me_range=32 / chroma_me=1 / trellis=2 / 8x8dct=1 / cqm=0 / deadzone=21,11 / fast_pskip=0 / chroma_qp_offset=-2 / threads=6 / lookahead_threads=1 / sliced_threads=0 / nr=0 / decimate=0 / interlaced=0 / bluray_compat=0 / constrained_intra=0 / bframes=16 / b_pyramid=2 / b_adapt=2 / b_bias=0 / direct=3 / weightb=1 / open_gop=0 / weightp=2 / keyint=240 / keyint_min=24 / scenecut=40 / intra_refresh=0 / rc_lookahead=60 / rc=crf / mbtree=0 / crf=23.0 / qcomp=0.60 / qpmin=0 / qpmax=69 / qpstep=4 / vbv_maxrate=62500 / vbv_bufsize=78125 / crf_max=0.0 / nal_hrd=none / filler=0 / ip_ratio=1.30 / pb_ratio=1.20 / aq=1:0.90
Default                                  : Yes
Forced                                   : No
Color range                              : Limited
Color primaries                          : BT.709
Transfer characteristics                 : BT.709
Matrix coefficients                      : BT.709

Audio #1
ID                                       : 2
Format                                   : AAC LC
Format/Info                              : Advanced Audio Codec Low Complexity
Codec ID                                 : A_AAC-2
Duration                                 : 52 min 59 s
Bit rate                                 : 154 kb/s
Channel(s)                               : 1 channel
Channel layout                           : C
Sampling rate                            : 48.0 kHz
Frame rate                               : 46.875 FPS (1024 SPF)
Compression mode                         : Lossy
Stream size                              : 58.2 MiB (1%)
Language                                 : English
Default                                  : Yes
Forced                                   : No

Audio #2
ID                                       : 3
Format                                   : AAC LC
Format/Info                              : Advanced Audio Codec Low Complexity
Codec ID                                 : A_AAC-2
Duration                                 : 53 min 0 s
Bit rate                                 : 62.7 kb/s
Channel(s)                               : 1 channel
Channel layout                           : C
Sampling rate                            : 48.0 kHz
Frame rate                               : 46.875 FPS (1024 SPF)
Compression mode                         : Lossy
Stream size                              : 23.8 MiB (0%)
Title                                    : Commentary by director D. A. Pennebaker, actor Elaine Stritch, and broadway producer Harold Prince
Language                                 : English
Default                                  : No
Forced                                   : No

Audio #3
ID                                       : 4
Format                                   : AAC LC
Format/Info                              : Advanced Audio Codec Low Complexity
Codec ID                                 : A_AAC-2
Duration                                 : 52 min 59 s
Bit rate                                 : 64.7 kb/s
Channel(s)                               : 1 channel
Channel layout                           : C
Sampling rate                            : 48.0 kHz
Frame rate                               : 46.875 FPS (1024 SPF)
Compression mode                         : Lossy
Stream size                              : 24.5 MiB (0%)
Title                                    : Commentary by composer-lyricist Stephen Sondheim
Language                                 : English
Default                                  : No
Forced                                   : No

Text #1
ID                                       : 5
Format                                   : UTF-8
Codec ID                                 : S_TEXT/UTF8
Codec ID/Info                            : UTF-8 Plain Text
Duration                                 : 51 min 9 s
Bit rate                                 : 80 b/s
Count of elements                        : 814
Stream size                              : 30.3 KiB (0%)
Title                                    : SRT
Language                                 : English
Default                                  : Yes
Forced                                   : No

Text #2
ID                                       : 6
Format                                   : PGS
Muxing mode                              : zlib
Codec ID                                 : S_HDMV/PGS
Codec ID/Info                            : Picture based subtitle format used on BDs/HD-DVDs
Duration                                 : 51 min 14 s
Bit rate                                 : 15.7 kb/s
Count of elements                        : 1742
Stream size                              : 5.77 MiB (0%)
Title                                    : Hard of Hearing
Language                                 : English
Default                                  : No
Forced                                   : No

Menu
00:00:00.000                             : :Opening sequence/\"Company\"
00:04:56.338                             : :\"You Could Drive a Person Crazy\"
00:12:28.915                             : :\"Getting Married Today\"
00:17:59.328                             : :\"Another Hundred People\"
00:24:15.788                             : :\"The Little Things you do together\"
00:27:54.423                             : :\"Being Alive\"
00:33:04.149                             : :\"Side by Side by Side\"
00:34:37.534                             : :\"Barcelone\"
00:37:55.690                             : :\"The Ladies Who Lunch\"
00:51:09.358                             : :Final Credits/\"Side by Side by Side\"

da73fc513765194a818534def1bcef74.png

[/url]60d5ec8b57fe92402a410f0708a458cd.png

[/url]510a19e44dae83cc2e6fcf46699b25e9.png

[/url]



                                                                                                                                                                                                        
                                                                                                                                                                                                                                                                                                                                                                                                                                                                                                                                                                                                                                                                                                                                                                                                                                                        
e558eb1a794fb1795a565761f7257174.torrent (21.92 KB, 下载次数: 0)

回复

使用道具 举报

小黑屋|西西论坛

本网站所有资源来自网络,如无意中侵犯了您的权益,请发邮件至 [email protected],立即清除相关链接

GMT+8, 2021-10-20 12:17 , Processed in 0.159545 second(s), 17 queries .

Powered by Discuz! X3.2

© 2001-2013 Comsenz Inc.

快速回复 返回顶部 返回列表