西西论坛

 找回密码
 立即注册
搜索

边缘 The.Edge.1968.1080p.BluRay.x264.FLAC.2.0-HANDJOB 7.68GB

[复制链接]
admin 发表于 7 天前 | 显示全部楼层 |阅读模式
边缘 The.Edge.1968.1080p.BluRay.x264.FLAC.2.0-HANDJOB 7.68GB                                                                                                                                                                                                                                                                                                                                                                                                                                                                                                                                        -->
帖子完整标题:边缘 The.Edge.1968.1080p.BluRay.x264.FLAC.2.0-HANDJOB 7.68GB



062e3a3d5d68a9724543886546ccdd40.jpg



◎译  名 边缘
◎片  名 The Edge
◎年  代 1968
◎产  地 美国
◎类  别 剧情
◎语  言 英语
◎上映日期 1968-03-27
◎豆瓣评分 /10 from 0 users
◎豆瓣链接 
◎片  长 100 分钟
◎导  演 罗伯特·克拉莫 Robert Kramer
◎编  剧 罗伯特·克拉莫 Robert Kramer

◎标  签 美国 | 罗伯特·克拉莫 | Robert_Kramer | 1968 | 1960s | 手册 | 己亥 | 北美

◎简  介

  "A troubled antiwar activist plans to assassinate the President of the United States. His resolve forces others in a fragmented and disillusioned group of political allies to face the threat of government counterintelligence and the temptations of middle-age security, and to reexamine their commitment to radical action."
Video
ID                                       : 1
Format                                   : AVC
Format/Info                              : Advanced Video Codec
Format profile                           :
Format settings                          : CABAC / 5 Ref Frames
Format settings, CABAC                   : Yes
Format settings, Reference frames        : 5 frames
Codec ID                                 : V_MPEG4/ISO/AVC
Duration                                 : 1 h 41 min
Bit rate                                 : 10.6 Mb/s
Width                                    : 1 440 pixels
Height                                   : 1 080 pixels
Display aspect ratio                     : 4:3
Frame rate mode                          : Constant
Frame rate                               : 24.000 FPS
Color space                              : YUV
Chroma subsampling                       : 4:2:0
Bit depth                                : 8 bits
Scan type                                : Progressive
Bits/(Pixel*Frame)                       : 0.283
Stream size                              : 7.52 GiB (98%)
Writing library                          : x264 core 163 r3059 b684ebe0
Encoding settings                        : cabac=1 / ref=5 / deblock=1:-3:-3 / analyse=0x3:0x133 / me=umh / subme=10 / psy=1 / psy_rd=1.00:0.00 / mixed_ref=1 / me_range=32 / chroma_me=1 / trellis=2 / 8x8dct=1 / cqm=0 / deadzone=21,11 / fast_pskip=0 / chroma_qp_offset=-2 / threads=24 / lookahead_threads=6 / sliced_threads=0 / nr=0 / decimate=0 / interlaced=0 / bluray_compat=0 / constrained_intra=0 / bframes=16 / b_pyramid=2 / b_adapt=2 / b_bias=0 / direct=3 / weightb=1 / open_gop=0 / weightp=2 / keyint=240 / keyint_min=24 / scenecut=40 / intra_refresh=0 / rc_lookahead=60 / rc=crf / mbtree=0 / crf=19.5 / qcomp=0.60 / qpmin=0 / qpmax=69 / qpstep=4 / vbv_maxrate=62500 / vbv_bufsize=78125 / crf_max=0.0 / nal_hrd=none / filler=0 / ip_ratio=1.40 / pb_ratio=1.30 / aq=2:1.00
Default                                  : Yes
Forced                                   : No
Color range                              : Limited
Color primaries                          : BT.709
Transfer characteristics                 : BT.709
Matrix coefficients                      : BT.709

Audio
ID                                       : 2
Format                                   : FLAC
Format/Info                              : Free Lossless Audio Codec
Codec ID                                 : A_FLAC
Duration                                 : 1 h 41 min
Bit rate mode                            : Variable
Bit rate                                 : 231 kb/s
Channel(s)                               : 2 channels
Channel layout                           : L R
Sampling rate                            : 48.0 kHz
Frame rate                               : 11.719 FPS (4096 SPF)
Bit depth                                : 16 bits
Compression mode                         : Lossless
Stream size                              : 169 MiB (2%)
Writing library                          : libFLAC 1.2.1 (UTC 2007-09-17)
Language                                 : English
Default                                  : Yes
Forced                                   : No

Menu
00:00:00.000                             : :Chapitre 01
00:02:32.708                             : :Chapitre 02
00:23:44.083                             : :Chapitre 03
00:36:21.500                             : :Chapitre 04
00:54:33.292                             : :Chapitre 05
01:08:52.792                             : :Chapitre 06
01:24:48.583                             : :Chapitre 07
01:37:08.583                             : :Chapitre 08

b6302378bf3d8eac2c42a73a52663558.png

[/url]267076308b27dd548d31d4424fbfccec.png

[/url]7eb08bdc781b87287d35667e2380e44c.png

[/url]



                                                                                                                                                                                                        
                                                                                                                                                                                                                                                                                                                                                                                                                                                                                                                                                                                                                                                                                                                                                                                                                                                        
0e2e5fae7df37871634b2d9db5869379.torrent (19.83 KB, 下载次数: 0)

回复

使用道具 举报

小黑屋|西西论坛

本网站所有资源来自网络,如无意中侵犯了您的权益,请发邮件至 [email protected],立即清除相关链接

GMT+8, 2021-10-20 12:37 , Processed in 0.090697 second(s), 17 queries .

Powered by Discuz! X3.2

© 2001-2013 Comsenz Inc.

快速回复 返回顶部 返回列表