西西论坛

 找回密码
 立即注册
搜索

大笑江湖 Just.Call.Me.Nobody.2010.CHINESE.1080p.BluRay.x264.DTS-EDPH 8.84GB

[复制链接]
admin 发表于 7 天前 | 显示全部楼层 |阅读模式
大笑江湖 Just.Call.Me.Nobody.2010.CHINESE.1080p.BluRay.x264.DTS-EDPH 8.84GB                                                                                                                                                                                                                                                                                                                                                                                                                                                                                                                                        -->
帖子完整标题:大笑江湖 Just.Call.Me.Nobody.2010.CHINESE.1080p.BluRay.x264.DTS-EDPH 8.84GB





◎译  名 Just Call Me Nobody
◎片  名 大笑江湖
◎年  代 2010
◎产  地 中国大陆,中国台湾
◎类  别 动作 / 爱情 / 武侠 / 古装
◎语  言 汉语普通话
◎上映日期 2010-12-03(中国大陆) / 2011-01-21(中国台湾)
◎豆瓣评分 4.7/10 from 85116 users
◎豆瓣链接 
◎片  长 93分钟
◎导  演 朱延平 Yen-Ping Chu
◎编  剧 宁财神 Caishen Ning
◎主  演 小沈阳 Xiao Shen-Yang
       林熙蕾 Kelly Lin
       赵本山 Benshan Zhao
       程野 Ye Cheng
       陈志朋 Julian Chen
       徐少强 Norman Chu
       吴宗宪 Jacky Wu
       曾志伟 Eric Tsang
       梁家仁 Ka-Yan Leung
       恬妞 Niu Tien
       毕畅 Chang Bi
       翟星月 Xingyue Zhai
       小小彬 Xiao Xiao Bin
       黄一飞 Yut Fei Wong
       王碧琪 Biqi Wang
       高子沣 Zifeng Gao
       侯桐江 Tongjiang Hou
       李国煌 Mark Lee
       刘晓光 Kiefer Liu
       宝迪 Bodi
       郝汉 Han Hao
       白志迪 Zhidi Bai

◎标  签 喜剧 | 小沈阳 | 赵本山 | 搞笑 | 中国电影 | 2010 | 中国 | 大陆

◎简  介

  吴迪(小沈阳 饰)以修鞋为生,最大乐趣就是看武侠漫画《飞剑》。某日,他遇到了修鞋女子月露(林熙蕾 饰),后者是皇上(陈志朋 饰)的表妹,因不愿做皇后,逃之夭夭。皇上派遣大内高手杨过(曾志伟 饰)追杀。吴迪盲打误撞杀了淫贼田扒光,救了月露。为了把鞋还给月露,吴迪前往泰山。途中,吴迪遭遇河盗独孤鸿(赵本山 饰)及其弟子(程野 饰),在世外高人的暗中帮助下,他击退了独孤鸿。老人临别时输给他深厚内力,赠给他一本《九阴真经》,由于他只看图,随手丢在一边。田扒光的神农教同门姐妹粉凤凰和红凤凰找他算账,结果他毫发无损,对方损兵折将。逃避追杀时,他掉进了万丈深渊,却遇到了世外高人的敌人(吴宗宪 饰),好在有惊无险。不过,最终吴迪还是住进了神农教主(恬妞 饰)开的黑店,并遇到了心上人月露……

◎获奖情况

  第2届金扫帚奖 ?(2010)
  最令人失望影片
  
  第1届豆瓣电影鑫像奖 ?(2011)
  豆渣单元最渣导演(华语) 朱延平
Video
ID                                       : 1
Format                                   : AVC
Format/Info                              : Advanced Video Codec
Format profile                           :
Format settings                          : CABAC / 5 Ref Frames
Format settings, CABAC                   : Yes
Format settings, Reference frames        : 5 frames
Codec ID                                 : V_MPEG4/ISO/AVC
Duration                                 : 1 h 38 min
Bit rate                                 : 11.3 Mb/s
Width                                    : 1 920 pixels
Height                                   : 818 pixels
Display aspect ratio                     : 2.35:1
Frame rate mode                          : Constant
Frame rate                               : 24.000 FPS
Color space                              : YUV
Chroma subsampling                       : 4:2:0
Bit depth                                : 8 bits
Scan type                                : Progressive
Bits/(Pixel*Frame)                       : 0.300
Stream size                              : 7.80 GiB (88%)
Writing library                          : x264 core 161 r3027 4121277
Encoding settings                        : cabac=1 / ref=5 / deblock=1:-3:-3 / analyse=0x3:0x133 / me=umh / subme=11 / psy=1 / psy_rd=1.02:0.00 / mixed_ref=1 / me_range=32 / chroma_me=1 / trellis=2 / 8x8dct=1 / cqm=0 / deadzone=21,11 / fast_pskip=0 / chroma_qp_offset=-2 / threads=12 / lookahead_threads=3 / sliced_threads=0 / nr=0 / decimate=0 / interlaced=0 / bluray_compat=0 / constrained_intra=0 / bframes=16 / b_pyramid=2 / b_adapt=2 / b_bias=0 / direct=3 / weightb=1 / open_gop=0 / weightp=2 / keyint=250 / keyint_min=24 / scenecut=40 / intra_refresh=0 / rc_lookahead=250 / rc=crf / mbtree=0 / crf=22.2 / qcomp=0.65 / qpmin=0 / qpmax=69 / qpstep=4 / vbv_maxrate=62500 / vbv_bufsize=78125 / crf_max=0.0 / nal_hrd=none / filler=0 / ip_ratio=1.30 / pb_ratio=1.20 / aq=3:0.80
Default                                  : No
Forced                                   : No
Color range                              : Limited
Color primaries                          : BT.709
Matrix coefficients                      : BT.709

Audio
ID                                       : 2
Format                                   : DTS
Format/Info                              : Digital Theater Systems
Codec ID                                 : A_DTS
Duration                                 : 1 h 38 min
Bit rate mode                            : Constant
Bit rate                                 : 1 509 kb/s
Channel(s)                               : 6 channels
Channel layout                           : C L R Ls Rs LFE
Sampling rate                            : 48.0 kHz
Frame rate                               : 93.750 FPS (512 SPF)
Bit depth                                : 16 bits
Compression mode                         : Lossy
Stream size                              : 1.04 GiB (12%)
Language                                 : Chinese
Default                                  : Yes
Forced                                   : No

Text #1
ID                                       : 3
Format                                   : UTF-8
Codec ID                                 : S_TEXT/UTF8
Codec ID/Info                            : UTF-8 Plain Text
Duration                                 : 1 h 35 min
Bit rate                                 : 43 b/s
Count of elements                        : 1028
Stream size                              : 30.5 KiB (0%)
Language                                 : English
Default                                  : Yes
Forced                                   : No

Text #2
ID                                       : 4
Format                                   : UTF-8
Codec ID                                 : S_TEXT/UTF8
Codec ID/Info                            : UTF-8 Plain Text
Duration                                 : 1 h 35 min
Bit rate                                 : 39 b/s
Count of elements                        : 1028
Stream size                              : 28.0 KiB (0%)
Title                                    : Simplified
Language                                 : Chinese
Default                                  : No
Forced                                   : No

Menu
00:00:00.000                             : en:Chapter 01
00:07:29.166                             : en:Chapter 02
00:15:33.500                             : en:Chapter 03
00:21:35.208                             : en:Chapter 04
00:33:58.833                             : en:Chapter 05
00:42:35.666                             : en:Chapter 06
00:49:45.333                             : en:Chapter 07
00:56:26.166                             : en:Chapter 08
01:05:58.833                             : en:Chapter 09
01:12:48.500                             : en:Chapter 10
01:21:13.333                             : en:Chapter 11
01:29:20.208                             : en:Chapter 12

471345ea6997d0e6dab0a86e33b49037.png

[/url]d67f6ed9ce147180456c6297a07d4cef.png

[/url]



                                                                                                                                                                                                        
                                                                                                                                                                                                                                                                                                                                                                                                                                                                                                                                                                                                                                                                                                                                                                                                                                                        
7263d3fbae64e734f7a3a7becb8dd3f4.torrent (22.74 KB, 下载次数: 0)

回复

使用道具 举报

小黑屋|西西论坛

本网站所有资源来自网络,如无意中侵犯了您的权益,请发邮件至 [email protected],立即清除相关链接

GMT+8, 2021-10-20 12:18 , Processed in 0.084944 second(s), 17 queries .

Powered by Discuz! X3.2

© 2001-2013 Comsenz Inc.

快速回复 返回顶部 返回列表