西西论坛

 找回密码
 立即注册
搜索

与狼共存 Surviving.with.Wolves.2007.FRENCH.1080p.BluRay.x264.DTS-SbR 11.61GB

[复制链接]
admin 发表于 7 天前 | 显示全部楼层 |阅读模式
与狼共存 Surviving.with.Wolves.2007.FRENCH.1080p.BluRay.x264.DTS-SbR 11.61GB                                                                                                                                                                                                                                                                                                                                                                                                                                                                                                                                        -->
帖子完整标题:与狼共存 Surviving.with.Wolves.2007.FRENCH.1080p.BluRay.x264.DTS-SbR 11.61GB



29794c09a70d92d6e526f14cb355d074.jpg



◎译  名 与狼共存/surviving with wolves
◎片  名 Survivre avec les loups
◎年  代 2007
◎产  地 法国,比利时,德国
◎类  别 剧情
◎语  言 法语
◎上映日期 2007-11-21
◎豆瓣评分 8.1/10 from 160 users
◎豆瓣链接 
◎片  长 Germany: 118 分钟(European Film Market)
◎导  演 薇拉·贝尔蒙 Véra Belmont
◎编  剧 薇拉·贝尔蒙 Véra Belmont
◎主  演 玛丽·克雷默 Marie Kremer
       乔治斯·西蒂斯 Georges Siatidis
       Anne-Marie Philipe Anne-Marie Philipe
       本诺·菲尔曼 Benno Fürmann
       盖伊·巴多斯 Guy Bedos
       米谢勒·贝尼耶 Michèle Bernier
       雅艾尔·阿贝卡西斯 Ya?l Abecassis

◎标  签 二战 | 法国 | 狼 | 法国电影 | 儿童 | 动物 | 剧情 | 战争

◎简  介

  Une petite fille de 8 ans parcourt l'Europe nazie à la recherche de ses parents.
  
  Elle s'appelle Misha. Elle est juive. Son père et sa mère viennent d'être déportés. Elle ne sait qu'une seule chose : ils sont à l'est. A l'aide d'une simple petite boussole, elle quitte sa Belgique natale et rejoint l'Ukraine à pied, traversant l'Allemagne et la Pologne, dans l'espoir de les retrouver.
  
  Pour survivre, elle vole de la nourriture et des vêtements.
  
  Pour survivre, elle évite les hommes et leur violence.
  
  Pour survivre, elle intègre une meute de loups. Et devient l'une des leurs.
Video
ID                                       : 1
Format                                   : AVC
Format/Info                              : Advanced Video Codec
Format profile                           :
Format settings                          : CABAC / 4 Ref Frames
Format settings, CABAC                   : Yes
Format settings, Reference frames        : 4 frames
Codec ID                                 : V_MPEG4/ISO/AVC
Duration                                 : 1 h 58 min
Bit rate                                 : 12.5 Mb/s
Width                                    : 1 918 pixels
Height                                   : 818 pixels
Display aspect ratio                     : 2.35:1
Frame rate mode                          : Constant
Frame rate                               : 25.000 FPS
Color space                              : YUV
Chroma subsampling                       : 4:2:0
Bit depth                                : 8 bits
Scan type                                : Progressive
Bits/(Pixel*Frame)                       : 0.319
Stream size                              : 10.4 GiB (89%)
Writing library                          : x264 core 164 r3065+62M b012ed0 devel [(8 & 10) X86_64]
Encoding settings                        : cabac=1 / ref=4 / deblock=1:-3:-3 / analyse=0x3:0x133 / me=umh / subme=11 / psy=1 / fade_compensate=0.00 / psy_rd=1.00:0.00 / mixed_ref=1 / me_range=32 / chroma_me=1 / trellis=2 / 8x8dct=1 / cqm=0 / deadzone=21,11 / fast_pskip=1 / chroma_qp_offset=-2 / threads=32 / lookahead_threads=6 / sliced_threads=0 / nr=0 / decimate=1 / interlaced=0 / bluray_compat=0 / constrained_intra=0 / fgo=0 / bframes=10 / b_pyramid=2 / b_adapt=2 / b_bias=0 / direct=3 / weightb=1 / open_gop=0 / weightp=2 / keyint=250 / keyint_min=25 / scenecut=40 / intra_refresh=0 / rc=crf / mbtree=0 / crf=18.5000 / qcomp=0.65 / qpmin=0:0:0 / qpmax=69:69:69 / qpstep=4 / ip_ratio=1.25 / pb_ratio=1.20 / aq=1:0.60 / aq-sensitivity=10.00 / aq-factor=1.00:1.00:1.00 / aq2=0 / aq3=0
Language                                 : French
Default                                  : Yes
Forced                                   : No

Audio
ID                                       : 2
Format                                   : DTS
Format/Info                              : Digital Theater Systems
Codec ID                                 : A_DTS
Duration                                 : 1 h 58 min
Bit rate mode                            : Constant
Bit rate                                 : 1 509 kb/s
Channel(s)                               : 6 channels
Channel layout                           : C L R Ls Rs LFE
Sampling rate                            : 48.0 kHz
Frame rate                               : 93.750 FPS (512 SPF)
Bit depth                                : 24 bits
Compression mode                         : Lossy
Stream size                              : 1.25 GiB (11%)
Language                                 : French
Default                                  : Yes
Forced                                   : No

Text #1
ID                                       : 3
Format                                   : ASS
Codec ID                                 : S_TEXT/ASS
Codec ID/Info                            : Advanced Sub Station Alpha
Duration                                 : 1 h 55 min
Bit rate                                 : 64 b/s
Count of elements                        : 766
Compression mode                         : Lossless
Stream size                              : 55.1 KiB (0%)
Title                                    : DVD
Language                                 : Russian
Default                                  : No
Forced                                   : No

Text #2
ID                                       : 4
Format                                   : UTF-8
Codec ID                                 : S_TEXT/UTF8
Codec ID/Info                            : UTF-8 Plain Text
Duration                                 : 1 h 55 min
Bit rate                                 : 45 b/s
Count of elements                        : 766
Stream size                              : 38.8 KiB (0%)
Title                                    : DVD
Language                                 : Russian
Default                                  : No
Forced                                   : No

Text #3
ID                                       : 5
Format                                   : UTF-8
Codec ID                                 : S_TEXT/UTF8
Codec ID/Info                            : UTF-8 Plain Text
Duration                                 : 1 h 55 min
Bit rate                                 : 47 b/s
Count of elements                        : 645
Stream size                              : 39.9 KiB (0%)
Language                                 : Russian
Default                                  : No
Forced                                   : No

Text #4
ID                                       : 6
Format                                   : ASS
Codec ID                                 : S_TEXT/ASS
Codec ID/Info                            : Advanced Sub Station Alpha
Duration                                 : 1 h 55 min
Bit rate                                 : 49 b/s
Count of elements                        : 872
Compression mode                         : Lossless
Stream size                              : 42.2 KiB (0%)
Language                                 : English
Default                                  : No
Forced                                   : No

Text #5
ID                                       : 7
Format                                   : UTF-8
Codec ID                                 : S_TEXT/UTF8
Codec ID/Info                            : UTF-8 Plain Text
Duration                                 : 1 h 55 min
Bit rate                                 : 27 b/s
Count of elements                        : 872
Stream size                              : 23.5 KiB (0%)
Language                                 : English
Default                                  : No
Forced                                   : No

Menu
00:00:00.000                             : Chapter 01
00:10:20.920                             : Chapter 02
00:20:04.920                             : Chapter 03
00:28:06.360                             : Chapter 04
00:36:00.720                             : Chapter 05
00:45:33.320                             : Chapter 06
00:59:46.360                             : Chapter 07
01:07:59.480                             : Chapter 08
01:18:15.400                             : Chapter 09
01:26:38.880                             : Chapter 10
01:33:29.200                             : Chapter 11
01:46:58.160                             : Chapter 12

b4da0dd818fbe53e76da285bed8f8a54.png

[/url]3b5c7eaeb93e75fe23ee89f01f755df3.png

[/url]



                                                                                                                                                                                                        
                                                                                                                                                                                                                                                                                                                                                                                                                                                                                                                                                                                                                                                                                                                                                                                                                                                        
a35f931331dad8d03a2527c9a73b6747.torrent (15.16 KB, 下载次数: 0)

回复

使用道具 举报

小黑屋|西西论坛

本网站所有资源来自网络,如无意中侵犯了您的权益,请发邮件至 [email protected],立即清除相关链接

GMT+8, 2021-10-20 12:05 , Processed in 0.097183 second(s), 17 queries .

Powered by Discuz! X3.2

© 2001-2013 Comsenz Inc.

快速回复 返回顶部 返回列表