西西论坛

 找回密码
 立即注册
搜索

阿拉丁与神灯 The.New.Adventures.of.Aladdin.2015.FRENCH.1080p.BluRay.x264.DTS-SbR ...

[复制链接]
admin 发表于 2021-10-13 19:23:35 | 显示全部楼层 |阅读模式
阿拉丁与神灯 The.New.Adventures.of.Aladdin.2015.FRENCH.1080p.BluRay.x264.DTS-SbR 12.01                                                                                                                                                                                                                                                                                                                                                                                                                                                                                                                                        -->
帖子完整标题:阿拉丁与神灯 The.New.Adventures.of.Aladdin.2015.FRENCH.1080p.BluRay.x264.DTS-SbR 12.01GB



c6e9f938c0702aba7ac9fb85badd53e3.jpg



◎译  名 阿拉丁与神灯/The New Adventures of Aladdin/巴格达历险记/新阿拉丁冒险/阿拉丁:冒险再起(台)
◎片  名 Les nouvelles aventures d'Aladin
◎年  代 2015
◎产  地 法国,比利时
◎类  别 喜剧
◎语  言 法语
◎上映日期 2015-10-14(法国) / 2016-11-18(中国大陆)
◎豆瓣评分 6.2/10 from 5760 users
◎豆瓣链接 
◎片  长 100分钟(中国大陆)
◎导  演 亚瑟·邦扎康 Arthur Benzaquen
◎编  剧 大卫·科恩 Daive Cohen
◎主  演 凯文·亚当斯 Kev Adams
       让-保罗·卢弗 Jean-Paul Rouve
       凡妮莎·吉德 Vanessa Guide
       奥黛丽·拉米 Audrey Lamy
       埃里克·朱多尔 Eric Judor
       威廉·勒布吉欧 William Lebghil
       米歇尔·布朗 Michel Blanc

◎标  签 喜剧 | 法国 | 搞笑 | 奇幻 | 童话 | 爱情 | 恶搞 | 2015

◎简  介

  青年阿拉丁(凯文·亚当斯 Kev Adams 饰)在一次偶然的事件中得到一把神灯,触摸这把神灯就会出现一位神仙来满足他的愿望,穷小伙阿拉丁爱上了王国的公主(凡妮莎·吉德 Vanessa Guide 饰),但邪恶的魔法师百般阻挠……
Video
ID                                       : 1
Format                                   : AVC
Format/Info                              : Advanced Video Codec
Format profile                           :
Format settings                          : CABAC / 4 Ref Frames
Format settings, CABAC                   : Yes
Format settings, Reference frames        : 4 frames
Codec ID                                 : V_MPEG4/ISO/AVC
Duration                                 : 1 h 45 min
Bit rate                                 : 14.7 Mb/s
Width                                    : 1 920 pixels
Height                                   : 804 pixels
Display aspect ratio                     : 2.40:1
Frame rate mode                          : Constant
Frame rate                               : 24.000 FPS
Color space                              : YUV
Chroma subsampling                       : 4:2:0
Bit depth                                : 8 bits
Scan type                                : Progressive
Bits/(Pixel*Frame)                       : 0.398
Stream size                              : 10.9 GiB (91%)
Writing library                          : x264 core 164 r3065+62M b012ed0 devel [(8 & 10) X86_64]
Encoding settings                        : cabac=1 / ref=4 / deblock=1:-3:-3 / analyse=0x3:0x133 / me=umh / subme=11 / psy=1 / fade_compensate=0.00 / psy_rd=1.00:0.00 / mixed_ref=1 / me_range=32 / chroma_me=1 / trellis=2 / 8x8dct=1 / cqm=0 / deadzone=21,11 / fast_pskip=1 / chroma_qp_offset=-2 / threads=32 / lookahead_threads=6 / sliced_threads=0 / nr=0 / decimate=1 / interlaced=0 / bluray_compat=0 / constrained_intra=0 / fgo=0 / bframes=10 / b_pyramid=2 / b_adapt=2 / b_bias=0 / direct=3 / weightb=1 / open_gop=0 / weightp=2 / keyint=250 / keyint_min=24 / scenecut=40 / intra_refresh=0 / rc=crf / mbtree=0 / crf=18.0000 / qcomp=0.65 / qpmin=0:0:0 / qpmax=69:69:69 / qpstep=4 / ip_ratio=1.25 / pb_ratio=1.20 / aq=1:0.60 / aq-sensitivity=10.00 / aq-factor=1.00:1.00:1.00 / aq2=0 / aq3=0
Language                                 : French
Default                                  : Yes
Forced                                   : No

Audio
ID                                       : 2
Format                                   : DTS
Format/Info                              : Digital Theater Systems
Codec ID                                 : A_DTS
Duration                                 : 1 h 45 min
Bit rate mode                            : Constant
Bit rate                                 : 1 509 kb/s
Channel(s)                               : 6 channels
Channel layout                           : C L R Ls Rs LFE
Sampling rate                            : 48.0 kHz
Frame rate                               : 93.750 FPS (512 SPF)
Bit depth                                : 16 bits
Compression mode                         : Lossy
Stream size                              : 1.11 GiB (9%)
Language                                 : French
Default                                  : Yes
Forced                                   : No

Text #1
ID                                       : 3
Format                                   : ASS
Codec ID                                 : S_TEXT/ASS
Codec ID/Info                            : Advanced Sub Station Alpha
Duration                                 : 1 h 40 min
Bit rate                                 : 161 b/s
Count of elements                        : 1758
Compression mode                         : Lossless
Stream size                              : 119 KiB (0%)
Language                                 : Russian
Default                                  : No
Forced                                   : No

Text #2
ID                                       : 4
Format                                   : UTF-8
Codec ID                                 : S_TEXT/UTF8
Codec ID/Info                            : UTF-8 Plain Text
Duration                                 : 1 h 40 min
Bit rate                                 : 109 b/s
Count of elements                        : 1758
Stream size                              : 80.9 KiB (0%)
Language                                 : Russian
Default                                  : No
Forced                                   : No

Text #3
ID                                       : 5
Format                                   : ASS
Codec ID                                 : S_TEXT/ASS
Codec ID/Info                            : Advanced Sub Station Alpha
Duration                                 : 1 h 40 min
Bit rate                                 : 93 b/s
Count of elements                        : 1436
Compression mode                         : Lossless
Stream size                              : 69.3 KiB (0%)
Title                                    : AMZ
Language                                 : English
Default                                  : No
Forced                                   : No

Text #4
ID                                       : 6
Format                                   : UTF-8
Codec ID                                 : S_TEXT/UTF8
Codec ID/Info                            : UTF-8 Plain Text
Duration                                 : 1 h 40 min
Bit rate                                 : 51 b/s
Count of elements                        : 1436
Stream size                              : 38.1 KiB (0%)
Title                                    : AMZ
Language                                 : English
Default                                  : No
Forced                                   : No

Text #5
ID                                       : 7
Format                                   : UTF-8
Codec ID                                 : S_TEXT/UTF8
Codec ID/Info                            : UTF-8 Plain Text
Duration                                 : 1 h 40 min
Bit rate                                 : 64 b/s
Count of elements                        : 1948
Stream size                              : 47.7 KiB (0%)
Language                                 : English
Default                                  : No
Forced                                   : No

Text #6
ID                                       : 8
Format                                   : UTF-8
Codec ID                                 : S_TEXT/UTF8
Codec ID/Info                            : UTF-8 Plain Text
Duration                                 : 1 h 44 min
Bit rate                                 : 68 b/s
Count of elements                        : 2191
Stream size                              : 52.7 KiB (0%)
Title                                    : SDH
Language                                 : English
Default                                  : No
Forced                                   : No

Text #7
ID                                       : 9
Format                                   : ASS
Codec ID                                 : S_TEXT/ASS
Codec ID/Info                            : Advanced Sub Station Alpha
Duration                                 : 1 h 41 min
Bit rate                                 : 203 b/s
Count of elements                        : 2107
Compression mode                         : Lossless
Stream size                              : 151 KiB (0%)
Language                                 : French
Default                                  : No
Forced                                   : No

Menu
00:00:00.000                             : 01. Tu me racontes une histoire?
00:07:02.542                             : 02. La cité aux mille richesses
00:12:41.750                             : 03. Dans un premier temps, va falloir m\'attraper!\"
00:21:19.292                             : 04. Mirages & miracles
00:26:46.708                             : 05. Le palais enfoui
00:36:44.000                             : 06. Une lampe toute naze...
00:40:41.333                             : 07. Impossible n\'est pas dans le vocabulaire d\'un génie!
00:45:36.667                             : 08. Un neveu bient?t gendre
00:49:55.042                             : 09. Les 4 (premiers) v?ux...
00:55:58.750                             : 10. Le \"meeting\" de l\'émissaire
01:04:55.208                             : 11. \"Yallah Yallah\"
01:07:54.458                             : 12. Prince de père en fils
01:17:07.833                             : 13. \"Naughty girl\"
01:22:01.625                             : 14. Dernier combat et dernier v?u
01:32:15.625                             : 15. La fin de l\'histoire
01:41:03.125                             : 16. Générique de fin





                                                                                                                                                                                                        
                                                                                                                                                                                                                                                                                                                                                                                                                                                                                                                                                                                                                                                                                                                                                                                                                                                        
2337cab6f5991f4f95cb89ad9f368cc2.torrent (15.67 KB, 下载次数: 0)

回复

使用道具 举报

小黑屋|西西论坛

本网站所有资源来自网络,如无意中侵犯了您的权益,请发邮件至 [email protected],立即清除相关链接

GMT+8, 2021-10-26 01:22 , Processed in 0.111768 second(s), 17 queries .

Powered by Discuz! X3.2

© 2001-2013 Comsenz Inc.

快速回复 返回顶部 返回列表