西西论坛

 找回密码
 立即注册
搜索

魔幻铁路历险记/托马斯小火车电影版 Thomas.and.the.Magic.Railroad.2000.1080p.BluRa ...

[复制链接]
admin 发表于 7 天前 | 显示全部楼层 |阅读模式
魔幻铁路历险记/托马斯小火车电影版 Thomas.and.the.Magic.Railroad.2000.1080p.BluRay.x264.DD5.1-PTP                                                                                                                                                                                                                                                                                                                                                                                                                                                                                                                                        -->
帖子完整标题:魔幻铁路历险记/托马斯小火车电影版 Thomas.and.the.Magic.Railroad.2000.1080p.BluRay.x264.DD5.1-PTP 9.90GB



ed642c0714b421106b5c247221ef9f2b.jpg



◎译  名 魔幻铁路历险记/托马斯小火车电影版
◎片  名 Thomas and the Magic Railroad
◎年  代 2000
◎产  地 英国,美国
◎类  别 家庭 / 奇幻
◎语  言 英语
◎上映日期 2000-07-14
◎豆瓣评分 /10 from 0 users
◎豆瓣链接 
◎片  长 85 分钟
◎导  演 布瑞特·奥克罗夫特 Britt Allcroft
◎编  剧 布瑞特·奥克罗夫特 Britt Allcroft / 雷夫·W·奥德里 Rev. W. Awdry
◎主  演 玛拉·威尔逊 Mara Wilson
       亚历克·鲍德温 Alec Baldwin
       彼得·方达 Peter Fonda
       拉塞尔·敏斯 Russell Means
       科鲁姆·费奥瑞 Colm Feore
       Robert Black Robert Black
       布瑞特·奥克罗夫特 Britt Allcroft
       科迪·麦克马斯 Cody McMains
       Kevin Frank Kevin Frank
       Didi Conn Didi Conn
       苏珊·罗曼 Susan Roman
       Michael E. Rodgers Michael E. Rodgers
       罗伯特·丁克勒 Robert Tinkler
       尼尔·克容 Neil Crone
       Robbie Bugbee Robbie Bugbee
       罗莉·哈利尔 Lori Hallier

◎标  签 美国电影 | 美国 | train | 童年 | rapid | obscure | MaraWilson | 纽约

◎简  介

  《魔幻铁路历险记》由最受孩子们欢迎的电视连续剧《火车头托马斯和他的朋友们》改编而成。该片秉承了原片无与伦比的魔法魅力,而且首次采用宽荧幕的形式向观众展示这种"半真人演绎半动画制作"的新派电影。  11岁的Lily(由Mara Wilson扮演)坐火车去她爷爷家玩。她爷爷(由Peter Fonda扮演)年轻时可是一名快乐的铁路工程师,但是现在过着孤独的生活。没想到Lily坐错了火车,最后在一个景色优美的小镇下了车。那个小镇名为" 美丽时光", 在那里Lily遇上了一位会使魔法的列车长(由Alec Baldwin扮演),跟着他又上了火车,沿着"魔幻铁路"开始去苏达岛的探险之旅。要知道苏达岛可是一个玩具王国,可爱的Thomas(迷你型蓝色蒸气车头玩具)就住在那,但是现在这个"世外桃源"正在受到贪婪和愚昧的侵蚀。于是Lily 和Thomas联手,在小狗Mutt、小男孩Patch等其他许多好朋友们的帮助下,共同惩治坏蛋,最终使故事有了一个圆满的结尾。
Video
ID                                       : 1
Format                                   : AVC
Format/Info                              : Advanced Video Codec
Format profile                           :
Format settings                          : CABAC / 4 Ref Frames
Format settings, CABAC                   : Yes
Format settings, Reference frames        : 4 frames
Codec ID                                 : V_MPEG4/ISO/AVC
Duration                                 : 1 h 25 min
Bit rate                                 : 15.8 Mb/s
Width                                    : 1 920 pixels
Height                                   : 1 040 pixels
Display aspect ratio                     : 1.85:1
Frame rate mode                          : Constant
Frame rate                               : 23.976 (24000/1001/189150) FPS
Color space                              : YUV
Chroma subsampling                       : 4:2:0
Bit depth                                : 8 bits
Scan type                                : Progressive
Bits/(Pixel*Frame)                       : 0.331
Stream size                              : 9.50 GiB (96%)
Writing library                          : x264 core 163 r3059 b684ebe0
Encoding settings                        : cabac=1 / ref=4 / deblock=1:-3:-3 / analyse=0x3:0x133 / me=umh / subme=10 / psy=1 / psy_rd=1.00:0.00 / mixed_ref=1 / me_range=32 / chroma_me=1 / trellis=2 / 8x8dct=1 / cqm=0 / deadzone=21,11 / fast_pskip=0 / chroma_qp_offset=-2 / threads=24 / lookahead_threads=6 / sliced_threads=0 / nr=0 / decimate=0 / interlaced=0 / bluray_compat=0 / constrained_intra=0 / bframes=16 / b_pyramid=2 / b_adapt=2 / b_bias=0 / direct=3 / weightb=1 / open_gop=0 / weightp=2 / keyint=240 / keyint_min=24 / scenecut=40 / intra_refresh=0 / rc_lookahead=60 / rc=crf / mbtree=0 / crf=17.5 / qcomp=0.60 / qpmin=0 / qpmax=69 / qpstep=4 / vbv_maxrate=62500 / vbv_bufsize=78125 / crf_max=0.0 / nal_hrd=none / filler=0 / ip_ratio=1.40 / pb_ratio=1.30 / aq=2:1.00
Default                                  : Yes
Forced                                   : No
Color range                              : Limited
Color primaries                          : BT.709
Transfer characteristics                 : BT.709
Matrix coefficients                      : BT.709

Audio
ID                                       : 2
Format                                   : AC-3
Format/Info                              : Audio Coding 3
Commercial name                          : Dolby Digital
Codec ID                                 : A_AC3
Duration                                 : 1 h 25 min
Bit rate mode                            : Constant
Bit rate                                 : 640 kb/s
Channel(s)                               : 6 channels
Channel layout                           : L R C LFE Ls Rs
Sampling rate                            : 48.0 kHz
Frame rate                               : 31.250 FPS (1536 SPF)
Compression mode                         : Lossy
Stream size                              : 393 MiB (4%)
Language                                 : English
Service kind                             : Complete Main
Default                                  : Yes
Forced                                   : No

Text #1
ID                                       : 3
Format                                   : UTF-8
Codec ID                                 : S_TEXT/UTF8
Codec ID/Info                            : UTF-8 Plain Text
Duration                                 : 1 h 24 min
Bit rate                                 : 61 b/s
Count of elements                        : 1250
Stream size                              : 37.7 KiB (0%)
Title                                    : SRT
Language                                 : English
Default                                  : Yes
Forced                                   : No

Text #2
ID                                       : 4
Format                                   : PGS
Muxing mode                              : zlib
Codec ID                                 : S_HDMV/PGS
Codec ID/Info                            : Picture based subtitle format used on BDs/HD-DVDs
Duration                                 : 1 h 25 min
Bit rate                                 : 38.5 kb/s
Count of elements                        : 1910
Stream size                              : 23.6 MiB (0%)
Language                                 : English
Default                                  : No
Forced                                   : No

Menu
00:00:00.000                             : :Chapter 1
00:08:49.612                             : :Chapter 2
00:16:19.770                             : :Chapter 3
00:22:11.163                             : :Chapter 4
00:26:46.355                             : :Chapter 5
00:29:04.534                             : :Chapter 6
00:32:22.524                             : :Chapter 7
00:39:31.911                             : :Chapter 8
00:43:13.549                             : :Chapter 9
00:47:13.289                             : :Chapter 10
00:51:37.094                             : :Chapter 11
00:56:26.842                             : :Chapter 12
01:01:48.580                             : :Chapter 13
01:07:59.450                             : :Chapter 14
01:12:48.239                             : :Chapter 15
01:15:13.092                             : :Chapter 16





                                                                                                                                                                                                        
                                                                                                                                                                                                                                                                                                                                                                                                                                                                                                                                                                                                                                                                                                                                                                                                                                                        
b8f6753d57947b054de2d9fe4835d196.torrent (25.4 KB, 下载次数: 0)

回复

使用道具 举报

小黑屋|西西论坛

本网站所有资源来自网络,如无意中侵犯了您的权益,请发邮件至 [email protected],立即清除相关链接

GMT+8, 2021-10-20 11:45 , Processed in 0.118556 second(s), 17 queries .

Powered by Discuz! X3.2

© 2001-2013 Comsenz Inc.

快速回复 返回顶部 返回列表