西西论坛

 找回密码
 立即注册
搜索

异界之门 Doors.2021.1080p.BluRay.x264.DTS-HD.MA.5.1-FGT 8.82GB

[复制链接]
admin 发表于 7 天前 | 显示全部楼层 |阅读模式
异界之门 Doors.2021.1080p.BluRay.x264.DTS-HD.MA.5.1-FGT 8.82GB                                                                                                                                                                                                                                                                                                                                                                                                                                                                                                                                        -->
帖子完整标题:异界之门 Doors.2021.1080p.BluRay.x264.DTS-HD.MA.5.1-FGT 8.82GB



bb46736c3fc002a5795310480ec8b0c7.jpg



◎译  名 异界之门
◎片  名 Doors
◎年  代 2021
◎产  地 美国
◎类  别 科幻 / 惊悚
◎语  言 英语
◎上映日期 2021-03-23(美国)
◎豆瓣评分 4.4/10 from 484 users
◎豆瓣链接 
◎片  长 85分钟
◎导  演 萨曼·凯什 Saman Kesh /  Dugan O'Neal
◎编  剧 萨曼·凯什 Saman Kesh /  Dugan O'Neal
◎主  演 威尔逊·贝索尔 Wilson Bethel
       琳娜·埃斯科 Lina Esco
       乔希·佩克 Josh Peck

◎标  签 科幻 | 美国 | 惊悚 | 2021 | 人性 | 文艺 | 电影 | 灵性

◎简  介

  Without warning, millions of mysterious alien "doors" suddenly appear around the globe. In a rush to determine the reason for their arrival, mankind must work together to understand the purpose of these cosmic anomalies. Bizarre incidences occurring around the sentient doors leads humanity to question their own existence and an altered reality as they attempt to enter them.
Video
ID                                       : 1
Format                                   : AVC
Format/Info                              : Advanced Video Codec
Format profile                           :
Format settings                          : CABAC / 4 Ref Frames
Format settings, CABAC                   : Yes
Format settings, Reference frames        : 4 frames
Codec ID                                 : V_MPEG4/ISO/AVC
Duration                                 : 1 h 24 min
Bit rate                                 : 11.5 Mb/s
Width                                    : 1 920 pixels
Height                                   : 816 pixels
Display aspect ratio                     : 2.35:1
Frame rate mode                          : Constant
Frame rate                               : 23.976 (24000/1001/189150) FPS
Color space                              : YUV
Chroma subsampling                       : 4:2:0
Bit depth                                : 8 bits
Scan type                                : Progressive
Bits/(Pixel*Frame)                       : 0.306
Stream size                              : 6.75 GiB (77%)
Writing library                          : x264 core 148 r2748 97eaef2
Encoding settings                        : cabac=1 / ref=4 / deblock=1:-2:-2 / analyse=0x3:0x113 / me=umh / subme=9 / psy=1 / psy_rd=1.00:0.15 / mixed_ref=1 / me_range=16 / chroma_me=1 / trellis=2 / 8x8dct=1 / cqm=0 / deadzone=21,11 / fast_pskip=1 / chroma_qp_offset=-3 / threads=72 / lookahead_threads=3 / sliced_threads=0 / nr=0 / decimate=1 / interlaced=0 / bluray_compat=0 / constrained_intra=0 / bframes=3 / b_pyramid=2 / b_adapt=1 / b_bias=0 / direct=3 / weightb=1 / open_gop=0 / weightp=2 / keyint=250 / keyint_min=25 / scenecut=40 / intra_refresh=0 / rc_lookahead=50 / rc=2pass / mbtree=1 / bitrate=11500 / ratetol=1.0 / qcomp=0.60 / qpmin=0 / qpmax=69 / qpstep=4 / cplxblur=20.0 / qblur=0.5 / vbv_maxrate=31250 / vbv_bufsize=31250 / nal_hrd=none / filler=0 / ip_ratio=1.40 / aq=1:1.00
Language                                 : English
Default                                  : Yes
Forced                                   : No

Audio
ID                                       : 2
ID in the original source medium         : 4353 (0x1101)
Format                                   : DTS XLL
Format/Info                              : Digital Theater Systems
Commercial name                          : DTS-HD Master Audio
Codec ID                                 : A_DTS
Duration                                 : 1 h 24 min
Bit rate mode                            : Variable
Bit rate                                 : 3 522 kb/s
Channel(s)                               : 6 channels
Channel layout                           : C L R Ls Rs LFE
Sampling rate                            : 48.0 kHz
Frame rate                               : 93.750 FPS (512 SPF)
Bit depth                                : 24 bits
Compression mode                         : Lossless
Stream size                              : 2.07 GiB (23%)
Title                                    : Surround 5.1
Language                                 : English
Default                                  : Yes
Forced                                   : No
Original source medium                   : Blu-ray

Text
ID                                       : 3
Format                                   : UTF-8
Codec ID                                 : S_TEXT/UTF8
Codec ID/Info                            : UTF-8 Plain Text
Duration                                 : 1 h 17 min
Bit rate                                 : 46 b/s
Count of elements                        : 1012
Stream size                              : 26.4 KiB (0%)
Title                                    : SRT
Language                                 : English
Default                                  : Yes
Forced                                   : No

Menu
00:00:00.000                             : de:Chapter 01
00:10:46.729                             : de:Chapter 02
00:23:23.527                             : de:Chapter 03
00:33:32.885                             : de:Chapter 04
00:42:17.326                             : de:Chapter 05
00:54:42.487                             : de:Chapter 06
01:04:16.811                             : de:Chapter 07
01:11:26.365                             : de:Chapter 08
01:19:01.820                             : de:Chapter 09

aa6bcb72583d34de1c8b46d4af26bb53.png

[/url]f7ea7a56f63e488cfedd0f645f1e8d19.png

[/url]



                                                                                                                                                                                                        
                                                                                                                                                                                                                                                                                                                                                                                                                                                                                                                                                                                                                                                                                                                                                                                                                                                        
f7e311ae8d1aab7aae621e56d4a86d92.torrent (22.66 KB, 下载次数: 0)

回复

使用道具 举报

小黑屋|西西论坛

本网站所有资源来自网络,如无意中侵犯了您的权益,请发邮件至 [email protected],立即清除相关链接

GMT+8, 2021-10-20 11:46 , Processed in 0.084922 second(s), 17 queries .

Powered by Discuz! X3.2

© 2001-2013 Comsenz Inc.

快速回复 返回顶部 返回列表