西西论坛

 找回密码
 立即注册
搜索

熊杀手 Berserker.1987.1080p.BluRay.x264-GUACAMOLE 8.40GB

[复制链接]
admin 发表于 2021-10-13 17:01:42 | 显示全部楼层 |阅读模式
熊杀手 Berserker.1987.1080p.BluRay.x264-GUACAMOLE 8.40GB                                                                                                                                                                                                                                                                                                                                                                                                                                                                                                                                        -->
帖子完整标题:熊杀手 Berserker.1987.1080p.BluRay.x264-GUACAMOLE 8.40GB



b1045ce7ad919c385d936edbfafaf7b6.jpg



◎译  名 熊杀手
◎片  名 Berserker
◎年  代 1987
◎产  地 美国
◎类  别 恐怖
◎语  言 英语
◎上映日期 
◎豆瓣评分 /10 from 0 users
◎豆瓣链接 
◎片  长 85 分钟
◎导  演 杰斐逊·理查德 Jefferson Richard
◎编  剧 杰斐逊·理查德 Jefferson Richard
◎主  演 乔治·“巴克”·弗劳尔 George 'Buck' Flower
       Beverly Rowland Beverly Rowland
       Beth Toussaint Beth Toussaint
       John F. Goff John F. Goff
       Joseph Alan Johnson Joseph Alan Johnson

◎标  签 恐怖 | 惊悚 | 1987 | 美国电影 | 美国

◎简  介

  Six young adults in the woods run afoul of a berserker, a viking warrior who dons the fur and snout of a bear, and are slain in turn by him.
Video
ID                                       : 1
Format                                   : AVC
Format/Info                              : Advanced Video Codec
Format profile                           :
Format settings                          : CABAC / 4 Ref Frames
Format settings, CABAC                   : Yes
Format settings, Reference frames        : 4 frames
Codec ID                                 : V_MPEG4/ISO/AVC
Duration                                 : 1 h 24 min
Bit rate                                 : 13.5 Mb/s
Width                                    : 1 920 pixels
Height                                   : 1 040 pixels
Display aspect ratio                     : 1.85:1
Frame rate mode                          : Constant
Frame rate                               : 23.976 (24000/1001/189150) FPS
Color space                              : YUV
Chroma subsampling                       : 4:2:0
Bit depth                                : 8 bits
Scan type                                : Progressive
Bits/(Pixel*Frame)                       : 0.282
Stream size                              : 8.02 GiB (95%)
Writing library                          : x264 core 164 r3065 ae03d92
Encoding settings                        : cabac=1 / ref=4 / deblock=1:-3:-3 / analyse=0x3:0x133 / me=umh / subme=9 / psy=1 / psy_rd=1.00:0.00 / mixed_ref=1 / me_range=16 / chroma_me=1 / trellis=2 / 8x8dct=1 / cqm=0 / deadzone=21,11 / fast_pskip=0 / chroma_qp_offset=-2 / threads=24 / lookahead_threads=2 / sliced_threads=0 / nr=0 / decimate=1 / interlaced=0 / bluray_compat=0 / constrained_intra=0 / bframes=3 / b_pyramid=2 / b_adapt=2 / b_bias=0 / direct=3 / weightb=1 / open_gop=0 / weightp=2 / keyint=250 / keyint_min=23 / scenecut=40 / intra_refresh=0 / rc_lookahead=60 / rc=crf / mbtree=1 / crf=21.5 / qcomp=0.60 / qpmin=0 / qpmax=69 / qpstep=4 / ip_ratio=1.40 / aq=3:0.60
Default                                  : Yes
Forced                                   : No
Color range                              : Limited
Matrix coefficients                      : BT.709

Audio
ID                                       : 2
Format                                   : FLAC
Format/Info                              : Free Lossless Audio Codec
Codec ID                                 : A_FLAC
Duration                                 : 1 h 24 min
Bit rate mode                            : Variable
Bit rate                                 : 649 kb/s
Channel(s)                               : 2 channels
Channel layout                           : L R
Sampling rate                            : 48.0 kHz
Frame rate                               : 11.719 FPS (4096 SPF)
Bit depth                                : 24 bits
Compression mode                         : Lossless
Stream size                              : 395 MiB (5%)
Writing library                          : libFLAC 1.2.1 (UTC 2007-09-17)
Language                                 : English
Default                                  : Yes
Forced                                   : No

Menu
00:00:00.000                             : en:00:00:00.000
00:09:54.135                             : en:00:09:54.135
00:22:04.907                             : en:00:22:04.907
00:31:23.006                             : en:00:31:23.006
00:39:55.727                             : en:00:39:55.727
00:51:20.619                             : en:00:51:20.619
01:02:36.419                             : en:01:02:36.419
01:10:16.421                             : en:01:10:16.421
01:21:00.272                             : en:01:21:00.272





                                                                                                                                                                                                        
                                                                                                                                                                                                                                                                                                                                                                                                                                                                                                                                                                                                                                                                                                                                                                                                                                                        
036ed9478c0e67a40c83326f0ee9c8c2.torrent (21.75 KB, 下载次数: 0)

回复

使用道具 举报

小黑屋|西西论坛

本网站所有资源来自网络,如无意中侵犯了您的权益,请发邮件至 [email protected],立即清除相关链接

GMT+8, 2021-10-26 00:04 , Processed in 0.100755 second(s), 17 queries .

Powered by Discuz! X3.2

© 2001-2013 Comsenz Inc.

快速回复 返回顶部 返回列表