西西论坛

 找回密码
 立即注册
搜索

撒旦的施虐者 Satans.Sadists.1969.1080p.BluRay.x264.FLAC.2.0-EDPH 8.79GB

[复制链接]
admin 发表于 2021-10-11 19:58:35 | 显示全部楼层 |阅读模式
撒旦的施虐者 Satans.Sadists.1969.1080p.BluRay.x264.FLAC.2.0-EDPH 8.79GB                                                                                                                                                                                                                                                                                                                                                                                                                                                                                                                                        -->
帖子完整标题:撒旦的施虐者 Satans.Sadists.1969.1080p.BluRay.x264.FLAC.2.0-EDPH 8.79GB



67509e6357209735931aa1167fb6890f.jpg



◎译  名 撒旦的施虐者
◎片  名 Satan's Sadists
◎年  代 1969
◎产  地 美国
◎类  别 剧情 / 动作 / 恐怖
◎语  言 英语
◎上映日期 1969-06-01
◎豆瓣评分 /10 from 0 users
◎豆瓣链接 
◎片  长 86 分钟
◎导  演 阿尔·亚当森 Al Adamson
◎编  剧 格雷登·克拉克 Greydon Clark
◎主  演 拉斯·坦布林 Russ Tamblyn
       斯科特·布兰迪 Scott Brady
       John 'Bud' Cardos John 'Bud' Cardos
       罗伯特·迪克斯 Robert Dix
       肯特·泰勒 Kent Taylor
       Gary Kent Gary Kent
       班比·艾伦 Bambi Allen
       雷吉娜·卡罗尔 Regina Carrol
       维克托·亚当森 Victor Adamson
       格雷登·克拉克 Greydon Clark

◎标  签 美国 | Cult | 1969 | 美国电影 | 犯罪 | 惊悚 | 恐怖 | 动作

◎简  介

  暂无相关剧情介绍
Video
ID                                       : 1
Format                                   : AVC
Format/Info                              : Advanced Video Codec
Format profile                           :
Format settings                          : CABAC / 5 Ref Frames
Format settings, CABAC                   : Yes
Format settings, Reference frames        : 5 frames
Codec ID                                 : V_MPEG4/ISO/AVC
Duration                                 : 1 h 26 min
Bit rate                                 : 14.1 Mb/s
Width                                    : 1 444 pixels
Height                                   : 1 080 pixels
Display aspect ratio                     : 4:3
Frame rate mode                          : Constant
Frame rate                               : 23.976 (24000/1001/189150) FPS
Color space                              : YUV
Chroma subsampling                       : 4:2:0
Bit depth                                : 8 bits
Scan type                                : Progressive
Bits/(Pixel*Frame)                       : 0.377
Stream size                              : 8.54 GiB (97%)
Writing library                          : x264 core 160 r3009 4c9b076
Encoding settings                        : cabac=1 / ref=5 / deblock=1:-3:-3 / analyse=0x3:0x133 / me=umh / subme=11 / psy=1 / psy_rd=1.02:0.00 / mixed_ref=1 / me_range=32 / chroma_me=1 / trellis=2 / 8x8dct=1 / cqm=0 / deadzone=21,11 / fast_pskip=0 / chroma_qp_offset=-2 / threads=34 / lookahead_threads=8 / sliced_threads=0 / nr=0 / decimate=0 / interlaced=0 / bluray_compat=0 / constrained_intra=0 / bframes=16 / b_pyramid=2 / b_adapt=2 / b_bias=0 / direct=3 / weightb=1 / open_gop=0 / weightp=2 / keyint=250 / keyint_min=23 / scenecut=40 / intra_refresh=0 / rc_lookahead=250 / rc=crf / mbtree=0 / crf=21.0 / qcomp=0.65 / qpmin=0 / qpmax=69 / qpstep=4 / vbv_maxrate=62500 / vbv_bufsize=78125 / crf_max=0.0 / nal_hrd=none / filler=0 / ip_ratio=1.30 / pb_ratio=1.20 / aq=3:0.65
Language                                 : English
Default                                  : Yes
Forced                                   : No
Color range                              : Limited
Color primaries                          : BT.709
Matrix coefficients                      : BT.709

Audio
ID                                       : 2
Format                                   : FLAC
Format/Info                              : Free Lossless Audio Codec
Codec ID                                 : A_FLAC
Duration                                 : 1 h 26 min
Bit rate mode                            : Variable
Bit rate                                 : 405 kb/s
Channel(s)                               : 2 channels
Channel layout                           : L R
Sampling rate                            : 48.0 kHz
Frame rate                               : 11.719 FPS (4096 SPF)
Bit depth                                : 16 bits
Compression mode                         : Lossless
Stream size                              : 252 MiB (3%)
Writing library                          : libFLAC 1.2.1 (UTC 2007-09-17)
Language                                 : English
Default                                  : Yes
Forced                                   : No

Text
ID                                       : 3
Format                                   : UTF-8
Codec ID                                 : S_TEXT/UTF8
Codec ID/Info                            : UTF-8 Plain Text
Duration                                 : 1 h 25 min
Bit rate                                 : 42 b/s
Count of elements                        : 956
Stream size                              : 26.5 KiB (0%)
Title                                    : SDH
Language                                 : English
Default                                  : No
Forced                                   : No

Menu
00:00:00.000                             : :Chapter 01
00:07:12.015                             : :Chapter 02
00:18:18.180                             : :Chapter 03
00:45:09.373                             : :Chapter 04
01:06:08.339                             : :Chapter 05
01:25:48.560                             : :Chapter 06

bf08ccc98fbe84aed05be8062bd04494.png

[/url]175b0b810c7204441f9f31c72adaa01b.png

[/url]0087de0aec74968547871a9ae71af9ed.png

[/url]



                                                                                                                                                                                                        
                                                                                                                                                                                                                                                                                                                                                                                                                                                                                                                                                                                                                                                                                                                                                                                                                                                        
b8960afb37edbc109b0de37ad476ae0b.torrent (22.61 KB, 下载次数: 0)

回复

使用道具 举报

小黑屋|西西论坛

本网站所有资源来自网络,如无意中侵犯了您的权益,请发邮件至 [email protected],立即清除相关链接

GMT+8, 2021-10-26 01:57 , Processed in 0.116136 second(s), 17 queries .

Powered by Discuz! X3.2

© 2001-2013 Comsenz Inc.

快速回复 返回顶部 返回列表