西西论坛

 找回密码
 立即注册
搜索

芬妮的旅程 Fannys.Journey.2016.FRENCH.1080p.BluRay.x264.DTS-SbR 11.60GB

[复制链接]
admin 发表于 2021-10-11 19:58:22 | 显示全部楼层 |阅读模式
芬妮的旅程 Fannys.Journey.2016.FRENCH.1080p.BluRay.x264.DTS-SbR 11.60GB                                                                                                                                                                                                                                                                                                                                                                                                                                                                                                                                        -->
帖子完整标题:芬妮的旅程 Fannys.Journey.2016.FRENCH.1080p.BluRay.x264.DTS-SbR 11.60GB





◎译  名 芬妮的旅程/Fanny's Journey/芬妮的勇敢旅程(台)
◎片  名 Le voyage de Fanny
◎年  代 2016
◎产  地 法国,比利时
◎类  别 剧情 / 战争
◎语  言 法语
◎上映日期 2016-05-18(法国)
◎豆瓣评分 8.6/10 from 30687 users
◎豆瓣链接 
◎片  长 94分钟
◎导  演 萝拉·多尔伦 Lola Doillon
◎编  剧 芬妮·班·艾米 Fanny Ben-Ami / 萝拉·多尔伦 Lola Doillon / 安妮·佩尔埃涅 Anne Peyrègne
◎主  演 莱奥尼·西索德 Léonie Souchaud
       芳汀·阿杜安 Fantine Harduin
       朱莉安娜·勒普罗 Juliane Lepoureau
       赖恩·布罗迪 Ryan Brodie
       安妮·梅林格 Ana?s Meiringer
       卢·拉布雷希特 Lou Lambrecht
       塞西尔·德·弗朗斯 Cécile De France
       玛龙·莱瓦纳 Malonn Lévana
       马丁·斯威比 Martin Swabey
       艾戈尔·范·德赛尔 Igor van Dessel
       斯特凡·德·胡特 Stéphane De Groodt
       Eric Soubelet Eric Soubelet
       奥利维尔·马萨特 Olivier Massart
        Thomas Demarez
       Pascaline Crêvecoeur Pascaline Crêvecoeur

◎标  签 二战 | 儿童 | 战争 | 法国 | 真实事件改编 | 孩子视角 | 温情 | 真實故事改編

◎简  介

  1943年法国维希政府时期,一群犹太儿童在儿童庇护所生活了几年后必须避开德国纳粹的逮捕逃往瑞士,为了避开逮捕不得不与他们信任的成年人分开。这一群犹太孩子踏上了一条一切靠自己的逃亡之旅。 本片根据真人真事《芬妮的回忆录》改编,真实刻画了二战时 期犹太儿童的处境,这群犹太儿童们面对着成年人都不知所措的艰险逃亡,又将如何?这群孩子是否能成功逃到瑞士呢? ?海德文
Video
ID                                       : 1
Format                                   : AVC
Format/Info                              : Advanced Video Codec
Format profile                           :
Format settings                          : CABAC / 4 Ref Frames
Format settings, CABAC                   : Yes
Format settings, Reference frames        : 4 frames
Codec ID                                 : V_MPEG4/ISO/AVC
Duration                                 : 1 h 35 min
Bit rate                                 : 16.0 Mb/s
Width                                    : 1 920 pixels
Height                                   : 804 pixels
Display aspect ratio                     : 2.40:1
Frame rate mode                          : Constant
Frame rate                               : 23.976 (24000/1001/189150) FPS
Color space                              : YUV
Chroma subsampling                       : 4:2:0
Bit depth                                : 8 bits
Scan type                                : Progressive
Bits/(Pixel*Frame)                       : 0.431
Stream size                              : 10.6 GiB (91%)
Writing library                          : x264 core 164 r3065+62M b012ed0 devel [(8 & 10) X86_64]
Encoding settings                        : cabac=1 / ref=4 / deblock=1:-3:-3 / analyse=0x3:0x133 / me=umh / subme=11 / psy=1 / fade_compensate=0.00 / psy_rd=1.00:0.00 / mixed_ref=1 / me_range=32 / chroma_me=1 / trellis=2 / 8x8dct=1 / cqm=0 / deadzone=21,11 / fast_pskip=1 / chroma_qp_offset=-2 / threads=32 / lookahead_threads=6 / sliced_threads=0 / nr=0 / decimate=1 / interlaced=0 / bluray_compat=0 / constrained_intra=0 / fgo=0 / bframes=10 / b_pyramid=2 / b_adapt=2 / b_bias=0 / direct=3 / weightb=1 / open_gop=0 / weightp=2 / keyint=250 / keyint_min=23 / scenecut=40 / intra_refresh=0 / rc=crf / mbtree=0 / crf=15.0000 / qcomp=0.65 / qpmin=0:0:0 / qpmax=69:69:69 / qpstep=4 / ip_ratio=1.25 / pb_ratio=1.20 / aq=1:0.60 / aq-sensitivity=10.00 / aq-factor=1.00:1.00:1.00 / aq2=0 / aq3=0
Language                                 : French
Default                                  : Yes
Forced                                   : No

Audio
ID                                       : 2
Format                                   : DTS
Format/Info                              : Digital Theater Systems
Codec ID                                 : A_DTS
Duration                                 : 1 h 35 min
Bit rate mode                            : Constant
Bit rate                                 : 1 509 kb/s
Channel(s)                               : 6 channels
Channel layout                           : C L R Ls Rs LFE
Sampling rate                            : 48.0 kHz
Frame rate                               : 93.750 FPS (512 SPF)
Bit depth                                : 24 bits
Compression mode                         : Lossy
Stream size                              : 1.00 GiB (9%)
Language                                 : French
Default                                  : Yes
Forced                                   : No

Text #1
ID                                       : 3
Format                                   : ASS
Codec ID                                 : S_TEXT/ASS
Codec ID/Info                            : Advanced Sub Station Alpha
Duration                                 : 1 h 30 min
Bit rate                                 : 67 b/s
Count of elements                        : 902
Compression mode                         : Lossless
Stream size                              : 44.5 KiB (0%)
Language                                 : English
Default                                  : No
Forced                                   : No

Text #2
ID                                       : 4
Format                                   : UTF-8
Codec ID                                 : S_TEXT/UTF8
Codec ID/Info                            : UTF-8 Plain Text
Duration                                 : 1 h 30 min
Bit rate                                 : 38 b/s
Count of elements                        : 902
Stream size                              : 25.2 KiB (0%)
Language                                 : English
Default                                  : No
Forced                                   : No

Text #3
ID                                       : 5
Format                                   : ASS
Codec ID                                 : S_TEXT/ASS
Codec ID/Info                            : Advanced Sub Station Alpha
Duration                                 : 1 h 31 min
Bit rate                                 : 162 b/s
Count of elements                        : 1403
Compression mode                         : Lossless
Stream size                              : 108 KiB (0%)
Language                                 : French
Default                                  : No
Forced                                   : No

Menu
00:00:00.000                             : Chapter 01
00:10:54.821                             : Chapter 02
00:21:45.095                             : Chapter 03
00:32:40.667                             : Chapter 04
00:41:07.507                             : Chapter 05
00:50:58.973                             : Chapter 06
01:02:11.770                             : Chapter 07
01:13:56.515                             : Chapter 08
01:23:27.836                             : Chapter 09
01:31:15.261                             : Chapter 10

3adbe71e0301c5d3ef949b85b3050982.png

[/url]260d2de335da321d471cec78ca3cd969.png

[/url]a76b47606b2a5c393563a5e1a87b9649.png

[/url]



                                                                                                                                                                                                        
                                                                                                                                                                                                                                                                                                                                                                                                                                                                                                                                                                                                                                                                                                                                                                                                                                                        
c868b6c1ff7654b468cfd45ca445127c.torrent (15.13 KB, 下载次数: 0)

回复

使用道具 举报

小黑屋|西西论坛

本网站所有资源来自网络,如无意中侵犯了您的权益,请发邮件至 [email protected],立即清除相关链接

GMT+8, 2021-10-20 12:16 , Processed in 0.091419 second(s), 17 queries .

Powered by Discuz! X3.2

© 2001-2013 Comsenz Inc.

快速回复 返回顶部 返回列表