西西论坛

 找回密码
 立即注册
搜索

午夜大杀手 Alone.in.The.Dark.1982.1080p.BluRay.x264.DD5.1-MaG 10.98GB

[复制链接]
admin 发表于 2021-10-11 19:58:16 | 显示全部楼层 |阅读模式
午夜大杀手 Alone.in.The.Dark.1982.1080p.BluRay.x264.DD5.1-MaG 10.98GB                                                                                                                                                                                                                                                                                                                                                                                                                                                                                                                                        -->
帖子完整标题:午夜大杀手 Alone.in.The.Dark.1982.1080p.BluRay.x264.DD5.1-MaG 10.98GB



c96431a3558ce54d0fab1f812642cfea.jpg



◎译  名 午夜大杀手
◎片  名 Alone in the Dark
◎年  代 1982
◎产  地 美国
◎类  别 恐怖
◎语  言 英语
◎上映日期 1982-11-12(美国)
◎豆瓣评分 5.6/10 from 70 users
◎豆瓣链接 
◎片  长 92 分钟
◎导  演 杰克·舒德 Jack Sholder
◎编  剧 杰克·舒德 Jack Sholder / 罗伯特·沙耶 Robert Shaye
◎主  演 杰克·帕兰斯 Jack Palance
       唐纳德·普利森斯 Donald Pleasence
       马丁·兰道 Martin Landau
       林·沙烨 Lin Shaye
       迈克尔·麦迪罗斯 Michael Medeiros
       布赖特·詹宁斯 Brent Jennings
       伊丽莎白·瓦尔德 Elizabeth Ward

◎标  签 恐怖 | 惊悚 | 美国 | 美国电影 | 悬疑 | 补遗 | 罗伯特·德尼罗 | 恐怖惊悚

◎简  介

  A quartet of murderous psychopaths break out of a mental hospital during a power blackout and lay siege to their doctor’s house.
Video
ID                                       : 1
Format                                   : AVC
Format/Info                              : Advanced Video Codec
Format profile                           :
Format settings                          : CABAC / 4 Ref Frames
Format settings, CABAC                   : Yes
Format settings, Reference frames        : 4 frames
Codec ID                                 : V_MPEG4/ISO/AVC
Duration                                 : 1 h 33 min
Bit rate                                 : 15.4 Mb/s
Width                                    : 1 920 pixels
Height                                   : 1 036 pixels
Display aspect ratio                     : 1.85:1
Frame rate mode                          : Constant
Frame rate                               : 23.976 (24000/1001/189150) FPS
Color space                              : YUV
Chroma subsampling                       : 4:2:0
Bit depth                                : 8 bits
Scan type                                : Progressive
Bits/(Pixel*Frame)                       : 0.323
Stream size                              : 10.0 GiB (91%)
Writing library                          : x264 core 157 r2935 545de2f
Encoding settings                        : cabac=1 / ref=4 / deblock=1:-3:-3 / analyse=0x3:0x133 / me=umh / subme=9 / psy=1 / psy_rd=1.00:0.00 / mixed_ref=1 / me_range=32 / chroma_me=1 / trellis=2 / 8x8dct=1 / cqm=0 / deadzone=21,11 / fast_pskip=0 / chroma_qp_offset=-2 / threads=24 / lookahead_threads=4 / sliced_threads=0 / nr=0 / decimate=1 / interlaced=0 / bluray_compat=0 / constrained_intra=0 / bframes=8 / b_pyramid=2 / b_adapt=2 / b_bias=0 / direct=3 / weightb=1 / open_gop=0 / weightp=2 / keyint=240 / keyint_min=24 / scenecut=40 / intra_refresh=0 / rc_lookahead=60 / rc=crf / mbtree=0 / crf=21.5 / qcomp=0.80 / qpmin=0 / qpmax=69 / qpstep=4 / vbv_maxrate=62500 / vbv_bufsize=78125 / crf_max=0.0 / nal_hrd=none / filler=0 / ip_ratio=1.40 / pb_ratio=1.30 / aq=3:1.00
Default                                  : Yes
Forced                                   : No
Color range                              : Limited
Color primaries                          : BT.709
Transfer characteristics                 : BT.709
Matrix coefficients                      : BT.709

Audio #1
ID                                       : 2
Format                                   : AC-3
Format/Info                              : Audio Coding 3
Commercial name                          : Dolby Digital
Codec ID                                 : A_AC3
Duration                                 : 1 h 33 min
Bit rate mode                            : Constant
Bit rate                                 : 448 kb/s
Channel(s)                               : 6 channels
Channel layout                           : L R C LFE Ls Rs
Sampling rate                            : 48.0 kHz
Frame rate                               : 31.250 FPS (1536 SPF)
Compression mode                         : Lossy
Delay relative to video                  : 2 s 250 ms
Stream size                              : 299 MiB (3%)
Title                                    : DD 5.1 Audio (DVD)
Language                                 : English
Service kind                             : Complete Main
Default                                  : Yes
Forced                                   : No

Audio #2
ID                                       : 3
Format                                   : FLAC
Format/Info                              : Free Lossless Audio Codec
Codec ID                                 : A_FLAC
Duration                                 : 1 h 33 min
Bit rate mode                            : Variable
Bit rate                                 : 578 kb/s
Channel(s)                               : 2 channels
Channel layout                           : L R
Sampling rate                            : 48.0 kHz
Frame rate                               : 11.719 FPS (4096 SPF)
Bit depth                                : 16 bits
Compression mode                         : Lossless
Stream size                              : 386 MiB (3%)
Title                                    : FLAC 2.0 Stereo Audio (Blu-ray)
Writing library                          : libFLAC 1.2.1 (UTC 2007-09-17)
Language                                 : English
Default                                  : No
Forced                                   : No

Audio #3
ID                                       : 4
Format                                   : AC-3
Format/Info                              : Audio Coding 3
Commercial name                          : Dolby Digital
Codec ID                                 : A_AC3
Duration                                 : 1 h 33 min
Bit rate mode                            : Constant
Bit rate                                 : 192 kb/s
Channel(s)                               : 2 channels
Channel layout                           : L R
Sampling rate                            : 48.0 kHz
Frame rate                               : 31.250 FPS (1536 SPF)
Compression mode                         : Lossy
Stream size                              : 128 MiB (1%)
Title                                    : Commentary with Director/Co-Writer Jack Sholder
Language                                 : English
Service kind                             : Complete Main
Default                                  : No
Forced                                   : No

Audio #4
ID                                       : 5
Format                                   : AC-3
Format/Info                              : Audio Coding 3
Commercial name                          : Dolby Digital
Codec ID                                 : A_AC3
Duration                                 : 1 h 33 min
Bit rate mode                            : Constant
Bit rate                                 : 192 kb/s
Channel(s)                               : 2 channels
Channel layout                           : L R
Sampling rate                            : 48.0 kHz
Frame rate                               : 31.250 FPS (1536 SPF)
Compression mode                         : Lossy
Stream size                              : 128 MiB (1%)
Title                                    : Commentary with Film Critic Justin Kerswell and Film Historian Amanda Reyes
Language                                 : English
Service kind                             : Complete Main
Default                                  : No
Forced                                   : No

Text #1
ID                                       : 6
Format                                   : UTF-8
Codec ID                                 : S_TEXT/UTF8
Codec ID/Info                            : UTF-8 Plain Text
Duration                                 : 1 h 29 min
Bit rate                                 : 49 b/s
Count of elements                        : 1288
Stream size                              : 32.7 KiB (0%)
Title                                    : English
Language                                 : English
Default                                  : Yes
Forced                                   : No

Text #2
ID                                       : 7
Format                                   : UTF-8
Codec ID                                 : S_TEXT/UTF8
Codec ID/Info                            : UTF-8 Plain Text
Duration                                 : 1 h 30 min
Bit rate                                 : 56 b/s
Count of elements                        : 1535
Stream size                              : 37.7 KiB (0%)
Title                                    : English SDH
Language                                 : English
Default                                  : No
Forced                                   : No

Text #3
ID                                       : 8
ID in the original source medium         : 4608 (0x1200)
Format                                   : PGS
Muxing mode                              : zlib
Codec ID                                 : S_HDMV/PGS
Codec ID/Info                            : Picture based subtitle format used on BDs/HD-DVDs
Duration                                 : 1 h 30 min
Bit rate                                 : 34.2 kb/s
Count of elements                        : 1996
Stream size                              : 22.2 MiB (0%)
Title                                    : English SDH
Language                                 : English
Default                                  : No
Forced                                   : No
Original source medium                   : Blu-ray

Menu
00:00:00.000                             : en:The Preachers Nightmare: Main Title
00:04:19.510                             : enoctor Dan Potter
00:09:08.341                             : en:The Men on the Third Floor
00:14:52.935                             : en:Another Day on the Job
00:21:01.095                             : en:The New, Improved Toni
00:24:40.898                             : en:Blackout
00:29:03.911                             : en:The Escape
00:39:05.596                             : en:A New Hat
00:44:15.865                             : en:The Babysitter
00:58:51.657                             : en:A Very Serious Situation
01:07:47.693                             : eneo Arrives
01:12:26.347                             : en:Through the Window
01:19:59.675                             : en:The Bleeder
01:24:17.933                             : en:Saved by the News
01:27:56.652                             : en:Frank Hits the Clubs
01:30:32.391                             : en:End Credits

b885f638285a7697f2f5ab1d0585fc2e.png

[/url]36d317c71bf3cc0544a0bd6a219c9080.png

[/url]e9bc6a387e6aaa5f75013ab2f259aadd.png

[/url]



                                                                                                                                                                                                        
                                                                                                                                                                                                                                                                                                                                                                                                                                                                                                                                                                                                                                                                                                                                                                                                                                                        
754056757478b8f5d9e9bbf003e1c83c.torrent (14.37 KB, 下载次数: 0)

回复

使用道具 举报

小黑屋|西西论坛

本网站所有资源来自网络,如无意中侵犯了您的权益,请发邮件至 [email protected],立即清除相关链接

GMT+8, 2021-10-20 12:04 , Processed in 0.115775 second(s), 17 queries .

Powered by Discuz! X3.2

© 2001-2013 Comsenz Inc.

快速回复 返回顶部 返回列表