西西论坛

 找回密码
 立即注册
搜索

馬永貞 Hero.1997.CHINESE.1080p.BluRay.x264.DD2.0-EDPH 6.93GB

[复制链接]
admin 发表于 2021-10-11 19:58:03 | 显示全部楼层 |阅读模式
馬永貞 Hero.1997.CHINESE.1080p.BluRay.x264.DD2.0-EDPH 6.93GB                                                                                                                                                                                                                                                                                                                                                                                                                                                                                                                                        -->
帖子完整标题:馬永貞 Hero.1997.CHINESE.1080p.BluRay.x264.DD2.0-EDPH 6.93GB





◎译  名 马永贞/Hero
◎片  名 馬永貞
◎年  代 1997
◎产  地 中国香港
◎类  别 剧情 / 动作
◎语  言 粤语
◎上映日期 1997-06-17(中国香港)
◎豆瓣评分 6.9/10 from 8749 users
◎豆瓣链接 
◎片  长 97分钟
◎导  演 元奎 Corey Yuen
◎编  剧 刘镇伟 Jeffrey Lau
◎主  演 金城武 Takeshi Kaneshiro
       元彪 Biao Yuen
       宣萱 Jessica Hester Hsuan
       周嘉玲 Valerie Chow
       元华 Wah Yuen
       元奎 Corey Yuen
       徐光 Guang Xu
       刘挺 Ting Liu
       元德 Tak Yuen

◎标  签 金城武 | 动作 | 香港 | 香港电影 | 元彪 | 马永贞 | 1997 | 元奎

◎简  介

  1898年山东大旱,无数难民涌入上海求生,人流中马永贞(金城武 饰)、马大祥(元华 饰)兄弟俩亦来到这片英国人掌控下的东方乐园,二马无技傍身,只好从码头苦力做起。马永贞机缘巧合结识上海码头之王谭四(元彪 饰),并凭借出色身手获得其欣赏。其时谭四与巡捕房支持的杨双连番血战,马永贞遭遇混战,为谭四的一壶春舞厅出手击退强敌,对卖场其中的歌女金铃子(宣萱 饰)一见钟情。谭四感佩马永贞义气,将一壶春和老板娘艳阳天一同赠送之。马永贞遂以一壶春为起点,率众攻占杨双地盘,激起上海滩无数杀伐。马永贞遭遇杨双暗算,命悬一线之际却再遇金铃子……

◎获奖情况

  第34届台北金马影展 ?(1997)
  金马奖最佳动作设计(提名) 元德?/?元奎
Video
ID                                       : 1
Format                                   : AVC
Format/Info                              : Advanced Video Codec
Format profile                           :
Format settings                          : CABAC / 4 Ref Frames
Format settings, CABAC                   : Yes
Format settings, Reference frames        : 4 frames
Codec ID                                 : V_MPEG4/ISO/AVC
Duration                                 : 1 h 28 min
Bit rate                                 : 11.1 Mb/s
Width                                    : 1 920 pixels
Height                                   : 1 024 pixels
Display aspect ratio                     : 1.85:1
Frame rate mode                          : Constant
Frame rate                               : 25.000 FPS
Color space                              : YUV
Chroma subsampling                       : 4:2:0
Bit depth                                : 8 bits
Scan type                                : Progressive
Bits/(Pixel*Frame)                       : 0.225
Stream size                              : 6.85 GiB (99%)
Writing library                          : x264 core 161 r3027 4121277
Encoding settings                        : cabac=1 / ref=4 / deblock=1:-3:-3 / analyse=0x3:0x133 / me=umh / subme=11 / psy=1 / psy_rd=1.02:0.00 / mixed_ref=1 / me_range=32 / chroma_me=1 / trellis=2 / 8x8dct=1 / cqm=0 / deadzone=21,11 / fast_pskip=0 / chroma_qp_offset=-2 / threads=12 / lookahead_threads=3 / sliced_threads=0 / nr=0 / decimate=0 / interlaced=0 / bluray_compat=0 / constrained_intra=0 / bframes=16 / b_pyramid=2 / b_adapt=2 / b_bias=0 / direct=3 / weightb=1 / open_gop=0 / weightp=2 / keyint=250 / keyint_min=25 / scenecut=40 / intra_refresh=0 / rc_lookahead=250 / rc=crf / mbtree=0 / crf=14.5 / qcomp=0.65 / qpmin=0 / qpmax=69 / qpstep=4 / vbv_maxrate=62500 / vbv_bufsize=78125 / crf_max=0.0 / nal_hrd=none / filler=0 / ip_ratio=1.30 / pb_ratio=1.20 / aq=3:0.80
Default                                  : No
Forced                                   : No
Color range                              : Limited
Color primaries                          : BT.709
Matrix coefficients                      : BT.709

Audio
ID                                       : 2
Format                                   : AC-3
Format/Info                              : Audio Coding 3
Commercial name                          : Dolby Digital
Codec ID                                 : A_AC3
Duration                                 : 1 h 28 min
Bit rate mode                            : Constant
Bit rate                                 : 128 kb/s
Channel(s)                               : 2 channels
Channel layout                           : L R
Sampling rate                            : 48.0 kHz
Frame rate                               : 31.250 FPS (1536 SPF)
Compression mode                         : Lossy
Stream size                              : 80.9 MiB (1%)
Language                                 : Chinese
Service kind                             : Complete Main
Default                                  : Yes
Forced                                   : No

Text
ID                                       : 3
Format                                   : UTF-8
Codec ID                                 : S_TEXT/UTF8
Codec ID/Info                            : UTF-8 Plain Text
Duration                                 : 1 h 25 min
Bit rate                                 : 52 b/s
Count of elements                        : 1080
Stream size                              : 32.8 KiB (0%)
Language                                 : English
Default                                  : Yes
Forced                                   : No

Menu
00:00:00.000                             : en:Chapter 01
00:07:22.406                             : en:Chapter 02
00:14:44.813                             : en:Chapter 03
00:22:07.219                             : en:Chapter 04
00:29:29.626                             : en:Chapter 05
00:36:52.033                             : en:Chapter 06
00:44:14.439                             : en:Chapter 07
00:51:36.846                             : en:Chapter 08
00:58:59.253                             : en:Chapter 09
01:06:21.659                             : en:Chapter 10
01:13:44.066                             : en:Chapter 11
01:21:06.473                             : en:Chapter 12

5456c0940cb9e4625a8c650ae975ba60.png

[/url]7495581167273607914bb431ea7e68f0.png

[/url]093bccdd4704f6f2f3c716d4ef67bc74.png

[/url]



                                                                                                                                                                                                        
                                                                                                                                                                                                                                                                                                                                                                                                                                                                                                                                                                                                                                                                                                                                                                                                                                                        
7a7af5d8c4fe4b551e6b8365326edadc.torrent (17.92 KB, 下载次数: 0)

回复

使用道具 举报

小黑屋|西西论坛

本网站所有资源来自网络,如无意中侵犯了您的权益,请发邮件至 [email protected],立即清除相关链接

GMT+8, 2021-10-20 11:05 , Processed in 0.282437 second(s), 17 queries .

Powered by Discuz! X3.2

© 2001-2013 Comsenz Inc.

快速回复 返回顶部 返回列表