西西论坛

 找回密码
 立即注册
搜索

空中大灌篮:新传奇 Space.Jam.A.New.Legacy.2021.1080p.BluRay.x264-PiGNUS 14.43GB . ...

[复制链接]
admin 发表于 2021-10-11 19:57:50 | 显示全部楼层 |阅读模式
空中大灌篮:新传奇 Space.Jam.A.New.Legacy.2021.1080p.BluRay.x264-PiGNUS 14.43GB                                                                                                                                                                                                                                                                                                                                                                                                                                                                                                                                        -->
帖子完整标题:空中大灌篮:新传奇 Space.Jam.A.New.Legacy.2021.1080p.BluRay.x264-PiGNUS 14.43GB



706c3f1268b1ba528d021dd1b126026b.jpg



◎译  名 空中大灌篮:新传奇/Space Jam 2: A Jogada Continua/Space Jam 2008/Space Jam Twenty 16/太空也入樽:改朝换代(港)/太空也入樽2(港)/宇宙大灌篮:新传承/宇宙大灌篮2/怪物奇兵 全新世代(台)/怪物奇兵2/空中大灌篮2:新传奇
◎片  名 Space Jam: A New Legacy
◎年  代 2021
◎产  地 美国
◎类  别 喜剧 / 动画 / 运动
◎语  言 英语
◎上映日期 2021-07-16(美国)
◎豆瓣评分 6.3/10 from 9879 users
◎豆瓣链接 
◎片  长 120分钟
◎导  演 马尔科姆·D·李 Malcolm D. Lee
◎编  剧 朱埃尔·泰勒 Juel Taylor / 特伦斯·南斯 Terence Nance / 蒂莫西·哈里斯 Timothy Harris / 史蒂夫·鲁德尼克 Steve Rudnick / 赫舍尔·魏因格罗德 Herschel Weingrod / 莱奥·本韦努蒂 Leo Benvenuti / 阿尔弗雷多·博泰洛 Alfredo Botello / 安德鲁·道奇 Andrew Dodge / 查克·琼斯 Chuck Jones / 林诣彬 Justin Lin / 威利?埃伯索尔 Willie Ebersol / 基南·库格勒 Keenan Coogler
◎主  演 勒布朗·詹姆斯 LeBron James
       赞达亚 Zendaya
       吉姆·卡明斯 Jim Cummings
       索尼夸·马丁-格林 Sonequa Martin-Green
       唐·钱德尔 Don Cheadle
       弗雷德·塔特西奥 Fred Tatasciore
       特蕾丝·麦克尼尔 Tress MacNeille
       马丁·科勒巴 Martin Klebba
       加布里埃尔·伊格莱西亚斯 Gabriel Iglesias
       豪莎·罗克莫雷 Xosha Roquemore
       艾瑞克·鲍扎 Eric Bauza
       鲍伯·伯根 Bob Bergen
       杰夫·伯格曼 Jeff Bergman
       坎迪·米洛 Candi Milo
       克里斯·戴维斯 Khris Davis
       凯蒂·麦克凯布 Katie McCabe
       斯凯勒·拜布尔 Skyler Bible
       克里斯·保罗 Chris Paul
        Peter Cornell
       克莱·汤普森 Klay Thompson
       德雷蒙德·格林 Draymond Green
       Hassan Said Hassan Said
       Erin Flannery Erin Flannery
       德里克?吉尔伯特 Derrick Gilbert
       G·莱恩·希尔曼 G. Lane Hillman
       卡桑德拉·斯塔尔 Cassandra Starr

◎标  签 篮球 | 动画 | 体育 | 美国 | 喜剧 | 2021 | 运动 | 电影

◎简  介

  故事讲述勒布朗与他的小儿子多姆被人工智能困在了“华纳兄弟电影宇宙”虚拟空间,为了能安全回家,他必须率兔八哥、罗拉兔和那些不守规矩的乐一通卡通,战胜一支全明星篮球队。这场对决是勒布朗人生的最大挑战,也将重新定义他与儿子间的关系,并让勒布朗领悟到“做自己”的真谛;乐一通的小伙伴们则要打破陈规,超常发挥自己的独特技能,令勒布朗都刮目相看。然而他们面对的,是一群前所未见、所向披靡的人工智能强化型对手“末日狂徒队”,勒布朗和乐一通们真的能成功击败他们吗?
Video
ID                                       : 1
Format                                   : AVC
Format/Info                              : Advanced Video Codec
Format profile                           :
Format settings                          : CABAC / 4 Ref Frames
Format settings, CABAC                   : Yes
Format settings, Reference frames        : 4 frames
Codec ID                                 : V_MPEG4/ISO/AVC
Duration                                 : 1 h 55 min
Bit rate                                 : 14.7 Mb/s
Width                                    : 1 920 pixels
Height                                   : 1 036 pixels
Display aspect ratio                     : 1.85:1
Frame rate mode                          : Constant
Frame rate                               : 23.976 (24000/1001/189150) FPS
Color space                              : YUV
Chroma subsampling                       : 4:2:0
Bit depth                                : 8 bits
Scan type                                : Progressive
Bits/(Pixel*Frame)                       : 0.308
Stream size                              : 11.8 GiB (82%)
Writing library                          : x264 core 164 r3065 ae03d92
Encoding settings                        : cabac=1 / ref=4 / deblock=1:-3:-3 / analyse=0x3:0x133 / me=umh / subme=9 / psy=1 / psy_rd=1.00:0.00 / mixed_ref=1 / me_range=16 / chroma_me=1 / trellis=2 / 8x8dct=1 / cqm=0 / deadzone=21,11 / fast_pskip=1 / chroma_qp_offset=-2 / threads=32 / lookahead_threads=2 / sliced_threads=0 / nr=0 / decimate=1 / interlaced=0 / bluray_compat=0 / constrained_intra=0 / bframes=3 / b_pyramid=2 / b_adapt=2 / b_bias=0 / direct=3 / weightb=1 / open_gop=0 / weightp=2 / keyint=250 / keyint_min=23 / scenecut=40 / intra_refresh=0 / rc_lookahead=60 / rc=crf / mbtree=1 / crf=17.0 / qcomp=0.60 / qpmin=0 / qpmax=69 / qpstep=4 / ip_ratio=1.40 / aq=1:1.00
Default                                  : Yes
Forced                                   : No

Audio #1
ID                                       : 2
Format                                   : MLP FBA 16-ch
Format/Info                              : Meridian Lossless Packing FBA with 16-channel presentation
Commercial name                          : Dolby TrueHD with Dolby Atmos
Codec ID                                 : A_TRUEHD
Duration                                 : 1 h 55 min
Bit rate mode                            : Variable
Bit rate                                 : 2 647 kb/s
Maximum bit rate                         : 4 002 kb/s
Channel(s)                               : 8 channels
Channel layout                           : L R C LFE Ls Rs Lb Rb
Sampling rate                            : 48.0 kHz
Frame rate                               : 1 200.000 FPS (40 SPF)
Compression mode                         : Lossless
Stream size                              : 2.14 GiB (15%)
Language                                 : English
Default                                  : Yes
Forced                                   : No
Number of dynamic objects                : 11
Bed channel count                        : 1 channel
Bed channel configuration                : LFE

Audio #2
ID                                       : 3
Format                                   : AC-3
Format/Info                              : Audio Coding 3
Commercial name                          : Dolby Digital
Format settings                          : Dolby Surround EX
Codec ID                                 : A_AC3
Duration                                 : 1 h 55 min
Bit rate mode                            : Constant
Bit rate                                 : 448 kb/s
Channel(s)                               : 6 channels
Channel layout                           : L R C LFE Ls Rs
Sampling rate                            : 48.0 kHz
Frame rate                               : 31.250 FPS (1536 SPF)
Compression mode                         : Lossy
Stream size                              : 370 MiB (3%)
Language                                 : English
Service kind                             : Complete Main
Default                                  : Yes
Forced                                   : No

Text #1
ID                                       : 4
Format                                   : PGS
Muxing mode                              : zlib
Codec ID                                 : S_HDMV/PGS
Codec ID/Info                            : Picture based subtitle format used on BDs/HD-DVDs
Duration                                 : 1 h 55 min
Bit rate                                 : 52.0 kb/s
Count of elements                        : 4852
Stream size                              : 42.9 MiB (0%)
Title                                    : English SDH
Language                                 : English
Default                                  : No
Forced                                   : No

Text #2
ID                                       : 5
Format                                   : PGS
Muxing mode                              : zlib
Codec ID                                 : S_HDMV/PGS
Codec ID/Info                            : Picture based subtitle format used on BDs/HD-DVDs
Duration                                 : 1 h 55 min
Bit rate                                 : 31.9 kb/s
Count of elements                        : 3554
Stream size                              : 26.3 MiB (0%)
Title                                    : French
Language                                 : French
Default                                  : No
Forced                                   : No

Text #3
ID                                       : 6
Format                                   : PGS
Muxing mode                              : zlib
Codec ID                                 : S_HDMV/PGS
Codec ID/Info                            : Picture based subtitle format used on BDs/HD-DVDs
Duration                                 : 1 h 55 min
Bit rate                                 : 40.4 kb/s
Count of elements                        : 3908
Stream size                              : 33.3 MiB (0%)
Title                                    : Spanish
Language                                 : Spanish
Default                                  : No
Forced                                   : No

Text #4
ID                                       : 7
Format                                   : PGS
Muxing mode                              : zlib
Codec ID                                 : S_HDMV/PGS
Codec ID/Info                            : Picture based subtitle format used on BDs/HD-DVDs
Duration                                 : 1 h 55 min
Bit rate                                 : 39.6 kb/s
Count of elements                        : 3902
Stream size                              : 32.6 MiB (0%)
Title                                    : Portuguese
Language                                 : Portuguese
Default                                  : No
Forced                                   : No

Text #5
ID                                       : 8
Format                                   : PGS
Muxing mode                              : zlib
Codec ID                                 : S_HDMV/PGS
Codec ID/Info                            : Picture based subtitle format used on BDs/HD-DVDs
Duration                                 : 1 h 43 min
Bit rate                                 : 2 183 b/s
Count of elements                        : 156
Stream size                              : 1.62 MiB (0%)
Title                                    : French
Language                                 : French
Default                                  : No
Forced                                   : No

Text #6
ID                                       : 9
Format                                   : PGS
Muxing mode                              : zlib
Codec ID                                 : S_HDMV/PGS
Codec ID/Info                            : Picture based subtitle format used on BDs/HD-DVDs
Duration                                 : 1 h 45 min
Bit rate                                 : 3 300 b/s
Count of elements                        : 266
Stream size                              : 2.48 MiB (0%)
Title                                    : Spanish
Language                                 : Spanish
Default                                  : No
Forced                                   : No

Text #7
ID                                       : 10
Format                                   : PGS
Muxing mode                              : zlib
Codec ID                                 : S_HDMV/PGS
Codec ID/Info                            : Picture based subtitle format used on BDs/HD-DVDs
Duration                                 : 1 h 45 min
Bit rate                                 : 2 347 b/s
Count of elements                        : 214
Stream size                              : 1.77 MiB (0%)
Title                                    : Portuguese
Language                                 : Portuguese
Default                                  : No
Forced                                   : No

Menu
00:00:00.000                             : Chapter 01
00:08:57.036                             : Chapter 02
00:14:28.493                             : Chapter 03
00:19:20.993                             : Chapter 04
00:25:11.176                             : Chapter 05
00:34:42.539                             : Chapter 06
00:42:10.695                             : Chapter 07
00:50:33.864                             : Chapter 08
00:56:00.732                             : Chapter 09
01:03:57.459                             : Chapter 10
01:08:39.824                             : Chapter 11
01:17:40.865                             : Chapter 12
01:24:07.209                             : Chapter 13
01:31:58.888                             : Chapter 14
01:39:33.050                             : Chapter 15
01:48:15.864                             : Chapter 16
01:55:31.007                             : Chapter 17

347d6599ece75290a65bddd92f4e8d8e.jpg





                                                                                                                                                                                                        
                                                                                                                                                                                                                                                                                                                                                                                                                                                                                                                                                                                                                                                                                                                                                                                                                                                        
34c31a5f9e1856131aa5974951e22d54.torrent (18.79 KB, 下载次数: 0)

回复

使用道具 举报

小黑屋|西西论坛

本网站所有资源来自网络,如无意中侵犯了您的权益,请发邮件至 [email protected],立即清除相关链接

GMT+8, 2021-10-20 12:17 , Processed in 0.092078 second(s), 17 queries .

Powered by Discuz! X3.2

© 2001-2013 Comsenz Inc.

快速回复 返回顶部 返回列表