西西论坛

 找回密码
 立即注册
搜索

化装舞会 Masquerade.2021.1080p.BluRay.x264.DTS-HD.MA.5.1-MT 6.64GB

[复制链接]
admin 发表于 2021-10-11 19:57:45 | 显示全部楼层 |阅读模式
化装舞会 Masquerade.2021.1080p.BluRay.x264.DTS-HD.MA.5.1-MT 6.64GB                                                                                                                                                                                                                                                                                                                                                                                                                                                                                                                                        -->
帖子完整标题:化装舞会 Masquerade.2021.1080p.BluRay.x264.DTS-HD.MA.5.1-MT 6.64GB





◎译  名 化装舞会
◎片  名 Masquerade
◎年  代 2020
◎产  地 美国
◎类  别 惊悚
◎上映日期 2020(美国)
◎豆瓣评分 /10 from 0 users
◎豆瓣链接 
◎导  演 夏恩·达克斯·泰勒 Shane Dax Taylor
◎编  剧 夏恩·达克斯·泰勒 Shane Dax Taylor
◎主  演 阿利维亚·阿林·林德 Alyvia Alyn Lind
       贝拉·索恩 Bella Thorne
       莫洽·梦若 Mircea Monroe
       斯凯勒·塞缪尔斯 Skyler Samuels
       奥斯汀·尼可斯 Austin Nichols
       卓娜·玫翠丝 Joana Metrass

◎标  签 美国 | 惊悚 | 电影 | 犯罪 | 悬疑 | 2021

◎简  介

  暂无相关剧情介绍
Video
ID                                       : 1
Format                                   : AVC
Format/Info                              : Advanced Video Codec
Format profile                           :
Format settings                          : CABAC / 4 Ref Frames
Format settings, CABAC                   : Yes
Format settings, Reference frames        : 4 frames
Codec ID                                 : V_MPEG4/ISO/AVC
Duration                                 : 1 h 20 min
Bit rate                                 : 9 717 kb/s
Width                                    : 1 920 pixels
Height                                   : 960 pixels
Display aspect ratio                     : 2.000
Frame rate mode                          : Constant
Frame rate                               : 23.976 (24000/1001/189150) FPS
Color space                              : YUV
Chroma subsampling                       : 4:2:0
Bit depth                                : 8 bits
Scan type                                : Progressive
Bits/(Pixel*Frame)                       : 0.220
Stream size                              : 5.45 GiB (82%)
Writing library                          : x264 core 157 r2938 2b00a84  Mod
Encoding settings                        : cabac=1 / ref=4 / deblock=1:-3:-3 / analyse=0x3:0x133 / me=umh / subme=10 / psy=1 / psy_rd=1.05:0.00 / mixed_ref=1 / me_range=32 / chroma_me=1 / trellis=2 / 8x8dct=1 / cqm=0 / deadzone=21,11 / fast_pskip=0 / chroma_qp_offset=-2 / threads=12 / lookahead_threads=2 / sliced_threads=0 / nr=0 / decimate=0 / interlaced=0 / bluray_compat=0 / constrained_intra=0 / bframes=8 / b_pyramid=2 / b_adapt=2 / b_bias=0 / direct=3 / weightb=1 / open_gop=0 / weightp=2 / keyint=250 / keyint_min=24 / scenecut=40 / intra_refresh=0 / rc_lookahead=250 / rc=crf / mbtree=0 / crf=16.8 / qcomp=0.60 / qpmin=0 / qpmax=69 / qpstep=4 / vbv_maxrate=62500 / vbv_bufsize=78125 / crf_max=0.0 / nal_hrd=none / filler=0 / ip_ratio=1.30 / pb_ratio=1.20 / aq=3:0.80
Language                                 : English
Default                                  : Yes
Forced                                   : No
Color range                              : Limited
Color primaries                          : BT.709
Matrix coefficients                      : BT.709

Audio
ID                                       : 2
Format                                   : DTS XLL
Format/Info                              : Digital Theater Systems
Commercial name                          : DTS-HD Master Audio
Codec ID                                 : A_DTS
Duration                                 : 1 h 20 min
Bit rate mode                            : Variable
Bit rate                                 : 2 090 kb/s
Channel(s)                               : 6 channels
Channel layout                           : C L R Ls Rs LFE
Sampling rate                            : 48.0 kHz
Frame rate                               : 93.750 FPS (512 SPF)
Bit depth                                : 24 bits
Compression mode                         : Lossless
Stream size                              : 1.17 GiB (18%)
Language                                 : English
Default                                  : Yes
Forced                                   : No

Text #1
ID                                       : 3
Format                                   : UTF-8
Codec ID                                 : S_TEXT/UTF8
Codec ID/Info                            : UTF-8 Plain Text
Duration                                 : 1 h 10 min
Bit rate                                 : 30 b/s
Count of elements                        : 640
Stream size                              : 15.9 KiB (0%)
Title                                    : SRT
Language                                 : English
Default                                  : Yes
Forced                                   : No

Text #2
ID                                       : 4
Format                                   : PGS
Muxing mode                              : zlib
Codec ID                                 : S_HDMV/PGS
Codec ID/Info                            : Picture based subtitle format used on BDs/HD-DVDs
Duration                                 : 1 h 17 min
Bit rate                                 : 23.9 kb/s
Count of elements                        : 1873
Stream size                              : 13.2 MiB (0%)
Language                                 : English
Default                                  : No
Forced                                   : No

Menu
00:00:00.000                             : Chapter 01
00:07:48.677                             : Chapter 02
00:13:33.980                             : Chapter 03
00:18:52.006                             : Chapter 04
00:27:26.687                             : Chapter 05
00:33:06.359                             : Chapter 06
00:40:50.073                             : Chapter 07
00:46:35.918                             : Chapter 08
00:54:41.236                             : Chapter 09
01:02:23.114                             : Chapter 10
01:10:31.561                             : Chapter 11
01:17:26.141                             : Chapter 12

8ad9238fd3c7f91701c129a17e2041fa.png

[/url]db71ef9747c7318e98d87f9abd6de384.png

[/url]5f60663d332c62d3a6ab0eaa84374c87.png

[/url]



                                                                                                                                                                                                        
                                                                                                                                                                                                                                                                                                                                                                                                                                                                                                                                                                                                                                                                                                                                                                                                                                                        
31cd991cc5ec41d898656cbad89178be.torrent (17.22 KB, 下载次数: 0)

回复

使用道具 举报

小黑屋|西西论坛

本网站所有资源来自网络,如无意中侵犯了您的权益,请发邮件至 [email protected],立即清除相关链接

GMT+8, 2021-10-20 11:24 , Processed in 0.085248 second(s), 17 queries .

Powered by Discuz! X3.2

© 2001-2013 Comsenz Inc.

快速回复 返回顶部 返回列表