西西论坛

 找回密码
 立即注册
搜索

上升 Ascendant.2021.1080p.BluRay.x264.DTS-MT 9.35GB

[复制链接]
admin 发表于 2021-10-11 19:56:30 | 显示全部楼层 |阅读模式
上升 Ascendant.2021.1080p.BluRay.x264.DTS-MT 9.35GB                                                                                                                                                                                                                                                                                                                                                                                                                                                                                                                                        -->
帖子完整标题:上升 Ascendant.2021.1080p.BluRay.x264.DTS-MT 9.35GB



da9e2585ca535d0da63b6e27bc1df712.jpg



◎译  名 上升/Rising Wolf
◎片  名 Ascendant
◎年  代 2021
◎产  地 澳大利亚
◎类  别 科幻 / 悬疑 / 惊悚 / 奇幻
◎语  言 英语
◎上映日期 2021-04-08(澳大利亚)
◎豆瓣评分 /10 from 0 users
◎豆瓣链接 
◎主  演 夏洛特·贝斯特 Charlotte Best
       约翰尼·帕斯沃尔斯基 Jonny Pasvolsky
       苏珊·普赖尔 Susan Prior
       安德鲁·杰克 Andrew Jack
       埃尔莎·科克雷尔 Elsa Cocquerel
       塔莉亚·斯图尔扎克 Tahlia Sturzaker
       Karelina Clarke Karelina Clarke

◎标  签 科幻 | 悬疑 | 惊悚 | 澳大利亚 | 2021 | 电影 | 没有资源 | Movie

◎简  介

  A young environmentalist wakes, trapped, kidnapped in the elevator of a super high-rise building at the mercy of her tormentors
Video
ID                                       : 1
Format                                   : AVC
Format/Info                              : Advanced Video Codec
Format profile                           :
Format settings                          : CABAC / 4 Ref Frames
Format settings, CABAC                   : Yes
Format settings, Reference frames        : 4 frames
Codec ID                                 : V_MPEG4/ISO/AVC
Duration                                 : 1 h 41 min
Bit rate                                 : 11.7 Mb/s
Width                                    : 1 920 pixels
Height                                   : 872 pixels
Display aspect ratio                     : 2.2:1
Frame rate mode                          : Constant
Frame rate                               : 23.976 (24000/1001/189150) FPS
Color space                              : YUV
Chroma subsampling                       : 4:2:0
Bit depth                                : 8 bits
Scan type                                : Progressive
Bits/(Pixel*Frame)                       : 0.291
Stream size                              : 8.27 GiB (89%)
Writing library                          : x264 core 157 r2938 2b00a84  Mod
Encoding settings                        : cabac=1 / ref=4 / deblock=1:-3:-3 / analyse=0x3:0x133 / me=umh / subme=10 / psy=1 / psy_rd=1.05:0.00 / mixed_ref=1 / me_range=32 / chroma_me=1 / trellis=2 / 8x8dct=1 / cqm=0 / deadzone=21,11 / fast_pskip=0 / chroma_qp_offset=-2 / threads=12 / lookahead_threads=2 / sliced_threads=0 / nr=0 / decimate=0 / interlaced=0 / bluray_compat=0 / constrained_intra=0 / bframes=8 / b_pyramid=2 / b_adapt=2 / b_bias=0 / direct=3 / weightb=1 / open_gop=0 / weightp=2 / keyint=250 / keyint_min=24 / scenecut=40 / intra_refresh=0 / rc_lookahead=250 / rc=crf / mbtree=0 / crf=16.8 / qcomp=0.60 / qpmin=0 / qpmax=69 / qpstep=4 / vbv_maxrate=62500 / vbv_bufsize=78125 / crf_max=0.0 / nal_hrd=none / filler=0 / ip_ratio=1.30 / pb_ratio=1.20 / aq=3:0.80
Language                                 : English
Default                                  : Yes
Forced                                   : No
Color range                              : Limited
Color primaries                          : BT.709
Matrix coefficients                      : BT.709

Audio
ID                                       : 2
Format                                   : DTS
Format/Info                              : Digital Theater Systems
Codec ID                                 : A_DTS
Duration                                 : 1 h 41 min
Bit rate mode                            : Constant
Bit rate                                 : 1 509 kb/s
Channel(s)                               : 6 channels
Channel layout                           : C L R Ls Rs LFE
Sampling rate                            : 48.0 kHz
Frame rate                               : 93.750 FPS (512 SPF)
Bit depth                                : 24 bits
Compression mode                         : Lossy
Stream size                              : 1.07 GiB (11%)
Language                                 : English
Default                                  : Yes
Forced                                   : No

Text
ID                                       : 3
Format                                   : UTF-8
Codec ID                                 : S_TEXT/UTF8
Codec ID/Info                            : UTF-8 Plain Text
Duration                                 : 1 h 36 min
Bit rate                                 : 31 b/s
Count of elements                        : 857
Stream size                              : 22.1 KiB (0%)
Title                                    : SRT
Language                                 : English
Default                                  : Yes
Forced                                   : No

Menu
00:00:00.000                             : Chapter 01
00:00:57.849                             : Chapter 02
00:08:04.067                             : Chapter 03
00:16:55.139                             : Chapter 04
00:26:19.286                             : Chapter 05
00:34:44.874                             : Chapter 06
00:44:05.893                             : Chapter 07
00:51:54.028                             : Chapter 08
01:00:12.567                             : Chapter 09
01:08:16.092                             : Chapter 10
01:17:34.650                             : Chapter 11
01:26:36.191                             : Chapter 12
01:36:19.941                             : Chapter 13

70307d70af217d67bc2bcec0aa82fd04.png

[/url]



                                                                                                                                                                                                        
                                                                                                                                                                                                                                                                                                                                                                                                                                                                                                                                                                                                                                                                                                                                                                                                                                                        
b43aa2f4479e751655e7a7adf3bc4d63.torrent (23.98 KB, 下载次数: 0)

回复

使用道具 举报

小黑屋|西西论坛

本网站所有资源来自网络,如无意中侵犯了您的权益,请发邮件至 [email protected],立即清除相关链接

GMT+8, 2021-10-20 11:59 , Processed in 0.115318 second(s), 17 queries .

Powered by Discuz! X3.2

© 2001-2013 Comsenz Inc.

快速回复 返回顶部 返回列表