西西论坛

 找回密码
 立即注册
搜索

特种部队:蛇眼起源 Snake.Eyes.G.I.Joe.Origins.2021.1080p.BluRay.x264.TrueHD.7.1.A ...

[复制链接]
admin 发表于 2021-10-11 19:55:53 | 显示全部楼层 |阅读模式
特种部队:蛇眼起源 Snake.Eyes.G.I.Joe.Origins.2021.1080p.BluRay.x264.TrueHD.7.1.Atmos-MT                                                                                                                                                                                                                                                                                                                                                                                                                                                                                                                                        -->
帖子完整标题:特种部队:蛇眼起源 Snake.Eyes.G.I.Joe.Origins.2021.1080p.BluRay.x264.TrueHD.7.1.Atmos-MT 12.51GB



39b226a7d81503d3748d687fb0ba088f.jpg



◎译  名 特种部队:蛇眼起源/Snake Eyes/义勇群英:蛇眼复仇战(港)/特种部队:蛇眼/特种部队:蛇眼之战 (台)/蛇眼
◎片  名 Snake Eyes: G.I. Joe Origins
◎年  代 2021
◎产  地 加拿大,美国
◎类  别 动作 / 科幻 / 冒险
◎语  言 英语
◎上映日期 2021-07-23(美国) / 2021-09(中国大陆)
◎豆瓣评分 4.3/10 from 7592 users
◎豆瓣链接 
◎片  长 121分钟
◎导  演 罗伯特·斯文克 Robert Schwentke
◎编  剧 埃文·斯彼里奥托普洛斯 Evan Spiliotopoulos / 乔·施雷普内尔 Joe Shrapnel / 安娜·沃特豪斯 Anna Waterhouse
◎主  演 亨利·戈尔丁 Henry Golding
       安德鲁·寇吉 Andrew Koji
       伊科·乌艾斯 Iko Uwais
       萨玛拉·维文 Samara Weaving
       乌苏拉·科尔维罗 úrsula Corberó
       安部春香 Haruka Abe
       平岳大 Takehiro Hira
       石田惠理 Eri Ishida
       彼得·门萨 Peter Mensah
       萨缪尔·芬齐 Samuel Finzi
       史蒂文·艾瑞克 Steven Allerick
       马克斯·阿奇博尔德 Max Archibald
       西蒙·钱 Simon Chin
       詹姆斯·廖 James Hiroyuki Liao
       谷垣健治 Kenji Tanigaki
       肖恩·O.罗伯茨 Sean O. Roberts
       贾森·戴 Jason Day
       Hugh Aodh O'Brien Hugh Aodh O'Brien
       迈克尔·盖恩斯 Michael Gaines

◎标  签 动作 | 特种部队 | 美国 | 科幻 | 2021 | 漫画改编 | 冒险 | 特工

◎简  介

  亨利·戈尔丁饰演一名因背负了复杂过去而隐忍的独行者,代号蛇眼。一次偶然,他救下了岚影一族的准接班人,从而被邀请加入他们在日本的组织。在那里,岚影一族不但教会了蛇眼如何成为一名忍者,也给了他一直想要的一个家。但当蛇眼过去的秘密被逐渐揭开,他的信誉以及对组织的忠诚也将受到考验,即便这会使他会失去最亲近的人的信任。特种部队原著中的经典角色也将在《特种部队:蛇眼起源》中一一亮相。
Video
ID                                       : 1
Format                                   : AVC
Format/Info                              : Advanced Video Codec
Format profile                           :
Format settings                          : CABAC / 5 Ref Frames
Format settings, CABAC                   : Yes
Format settings, Reference frames        : 5 frames
Codec ID                                 : V_MPEG4/ISO/AVC
Duration                                 : 2 h 1 min
Bit rate                                 : 9 673 kb/s
Width                                    : 1 920 pixels
Height                                   : 804 pixels
Display aspect ratio                     : 2.40:1
Frame rate mode                          : Constant
Frame rate                               : 23.976 (24000/1001/189150) FPS
Color space                              : YUV
Chroma subsampling                       : 4:2:0
Bit depth                                : 8 bits
Scan type                                : Progressive
Bits/(Pixel*Frame)                       : 0.261
Stream size                              : 8.20 GiB (66%)
Writing library                          : x264 core 157 r2938 2b00a84  Mod
Encoding settings                        : cabac=1 / ref=5 / deblock=1:-3:-3 / analyse=0x3:0x133 / me=umh / subme=10 / psy=1 / psy_rd=1.05:0.00 / mixed_ref=1 / me_range=32 / chroma_me=1 / trellis=2 / 8x8dct=1 / cqm=0 / deadzone=21,11 / fast_pskip=0 / chroma_qp_offset=-2 / threads=12 / lookahead_threads=2 / sliced_threads=0 / nr=0 / decimate=0 / interlaced=0 / bluray_compat=0 / constrained_intra=0 / bframes=8 / b_pyramid=2 / b_adapt=2 / b_bias=0 / direct=3 / weightb=1 / open_gop=0 / weightp=2 / keyint=250 / keyint_min=24 / scenecut=40 / intra_refresh=0 / rc_lookahead=250 / rc=crf / mbtree=0 / crf=16.8 / qcomp=0.60 / qpmin=0 / qpmax=69 / qpstep=4 / vbv_maxrate=62500 / vbv_bufsize=78125 / crf_max=0.0 / nal_hrd=none / filler=0 / ip_ratio=1.30 / pb_ratio=1.20 / aq=3:0.80
Language                                 : English
Default                                  : Yes
Forced                                   : No
Color range                              : Limited
Color primaries                          : BT.709
Matrix coefficients                      : BT.709

Audio #1
ID                                       : 2
Format                                   : MLP FBA 16-ch
Format/Info                              : Meridian Lossless Packing FBA with 16-channel presentation
Commercial name                          : Dolby TrueHD with Dolby Atmos
Codec ID                                 : A_TRUEHD
Duration                                 : 2 h 1 min
Bit rate mode                            : Variable
Bit rate                                 : 4 363 kb/s
Maximum bit rate                         : 7 854 kb/s
Channel(s)                               : 8 channels
Channel layout                           : L R C LFE Ls Rs Lb Rb
Sampling rate                            : 48.0 kHz
Frame rate                               : 1 200.000 FPS (40 SPF)
Compression mode                         : Lossless
Stream size                              : 3.70 GiB (30%)
Language                                 : English
Default                                  : Yes
Forced                                   : No
Number of dynamic objects                : 11
Bed channel count                        : 1 channel
Bed channel configuration                : LFE

Audio #2
ID                                       : 3
Format                                   : AC-3
Format/Info                              : Audio Coding 3
Commercial name                          : Dolby Digital
Codec ID                                 : A_AC3
Duration                                 : 2 h 1 min
Bit rate mode                            : Constant
Bit rate                                 : 640 kb/s
Channel(s)                               : 6 channels
Channel layout                           : L R C LFE Ls Rs
Sampling rate                            : 48.0 kHz
Frame rate                               : 31.250 FPS (1536 SPF)
Compression mode                         : Lossy
Stream size                              : 556 MiB (4%)
Language                                 : English
Service kind                             : Complete Main
Default                                  : Yes
Forced                                   : No

Text #1
ID                                       : 4
Format                                   : UTF-8
Codec ID                                 : S_TEXT/UTF8
Codec ID/Info                            : UTF-8 Plain Text
Duration                                 : 1 h 52 min
Bit rate                                 : 26 b/s
Count of elements                        : 775
Stream size                              : 22.0 KiB (0%)
Title                                    : SRT
Language                                 : English
Default                                  : Yes
Forced                                   : No

Text #2
ID                                       : 5
Format                                   : PGS
Muxing mode                              : zlib
Codec ID                                 : S_HDMV/PGS
Codec ID/Info                            : Picture based subtitle format used on BDs/HD-DVDs
Duration                                 : 1 h 52 min
Bit rate                                 : 18.7 kb/s
Count of elements                        : 1552
Stream size                              : 15.0 MiB (0%)
Language                                 : English
Default                                  : No
Forced                                   : No

Menu
00:00:00.000                             : Chapter 01
00:10:17.367                             : Chapter 02
00:19:39.887                             : Chapter 03
00:28:50.062                             : Chapter 04
00:37:50.977                             : Chapter 05
00:43:39.867                             : Chapter 06
00:54:53.790                             : Chapter 07
01:03:18.920                             : Chapter 08
01:14:04.440                             : Chapter 09
01:23:59.117                             : Chapter 10
01:29:09.219                             : Chapter 11
01:36:39.293                             : Chapter 12
01:46:26.922                             : Chapter 13
01:53:51.533                             : Chapter 14

acbf940f4abc5ce871f50096976e4f82.png

[/url]a166ec3a99b5fe8900e6148df1609cc9.png

[/url]



                                                                                                                                                                                                        
                                                                                                                                                                                                                                                                                                                                                                                                                                                                                                                                                                                                                                                                                                                                                                                                                                                        
7e61de8b8680bb1bc0d56427dbf9b445.torrent (16.27 KB, 下载次数: 0)

回复

使用道具 举报

小黑屋|西西论坛

本网站所有资源来自网络,如无意中侵犯了您的权益,请发邮件至 [email protected],立即清除相关链接

GMT+8, 2021-10-20 12:07 , Processed in 0.134002 second(s), 17 queries .

Powered by Discuz! X3.2

© 2001-2013 Comsenz Inc.

快速回复 返回顶部 返回列表