西西论坛

 找回密码
 立即注册
搜索

火药奶昔 Gunpowder.Milkshake.2021.1080p.BluRay.x264.DTS-HD.MA.5.1-FGT 12.57GB .. ...

[复制链接]
admin 发表于 2021-10-11 19:55:05 | 显示全部楼层 |阅读模式
火药奶昔 Gunpowder.Milkshake.2021.1080p.BluRay.x264.DTS-HD.MA.5.1-FGT 12.57GB                                                                                                                                                                                                                                                                                                                                                                                                                                                                                                                                        -->
帖子完整标题:火药奶昔 Gunpowder.Milkshake.2021.1080p.BluRay.x264.DTS-HD.MA.5.1-FGT 12.57GB



87e9ce1c9f45e423ce6784e68d998f93.jpg



◎译  名 火药奶昔/Bloody Milkshake/血客联盟(台)
◎片  名 Gunpowder Milkshake
◎年  代 2021
◎产  地 法国,美国,德国
◎类  别 动作 / 惊悚 / 冒险
◎语  言 英语
◎上映日期 2021-07-14(美国)
◎豆瓣评分 5.7/10 from 5109 users
◎豆瓣链接 
◎片  长 114分钟
◎导  演 纳沃特·帕普莎多 Navot Papushado
◎编  剧 纳沃特·帕普莎多 Navot Papushado
◎主  演 凯伦·吉兰 Karen Gillan
       琳娜·海蒂 Lena Headey
       卡拉·古奇诺 Carla Gugino
       杨紫琼 Michelle Yeoh
       安吉拉·贝塞特 Angela Bassett
       保罗·吉亚玛提 Paul Giamatti
       拉尔夫·伊内森 Ralph Ineson
       弗蕾娅·艾伦 Freya Allan
       克洛伊·科尔曼 Chloe Coleman
       罗伯特?马瑟 Robert Maaser
       亚当·那加提斯 Adam Nagaitis
       塞缪尔·安德森 Samuel Anderson
       乔梅杨 Mai Duong Kieu
       杰克·班戴拉 Jack Bandeira
       约书亚·格罗斯 Joshua Grothe
       艾德·伯奇 Ed Birch
       大卫·齐梅尔席德 David Zimmerschied
       安妮塔·欧拉藤吉 Anita Olatunji
       乔安娜·波宾 Joanna Bobin

◎标  签 动作 | 美国 | 犯罪 | 2021 | 黑色幽默 | 杨紫琼 | 凯伦·吉兰 | 美国电影

◎简  介

  萨姆(凯伦·吉兰饰)的母亲斯卡利特(琳娜·海蒂饰)是一名精英刺客,当萨姆被迫与母亲分开时,她只有 12 岁。萨姆由 The Firm 抚养长大,这是她母亲为之工作的无情犯罪集团。现在,15 年过去了,萨姆跟随母亲的脚步,成长为一名作风凌厉的女杀手。她用自己的“才能”来收拾 The Firm 最危险的烂摊子,既能干又忠诚。但是,当高风险工作出问题时,萨姆必须选择继续效忠 The Firm,还是保护无辜的 8 岁女孩埃米莉(克洛伊·科尔曼饰)的生命。萨姆成为了被追杀的对象,现在她只有一次生存的机会:与她的母亲和其他女杀手“图书管理员”(杨紫琼、安吉拉·贝塞特和卡拉·古奇诺饰)团聚。这三代女性现在必须学会彼此信任,勇敢地对抗 The Firm 及爪牙大军,奋起反抗那些可以夺走她们一切的人。
Video
ID                                       : 1
Format                                   : AVC
Format/Info                              : Advanced Video Codec
Format profile                           :
Format settings                          : CABAC / 4 Ref Frames
Format settings, CABAC                   : Yes
Format settings, Reference frames        : 4 frames
Codec ID                                 : V_MPEG4/ISO/AVC
Duration                                 : 1 h 54 min
Bit rate                                 : 11.5 Mb/s
Width                                    : 1 920 pixels
Height                                   : 800 pixels
Display aspect ratio                     : 2.40:1
Frame rate mode                          : Constant
Frame rate                               : 24.000 FPS
Color space                              : YUV
Chroma subsampling                       : 4:2:0
Bit depth                                : 8 bits
Scan type                                : Progressive
Bits/(Pixel*Frame)                       : 0.312
Stream size                              : 9.22 GiB (73%)
Writing library                          : x264 core 148 r2795M aaa9aa8
Encoding settings                        : cabac=1 / ref=4 / deblock=1:-2:-2 / analyse=0x3:0x113 / me=umh / subme=9 / psy=1 / psy_rd=1.00:0.15 / mixed_ref=1 / me_range=16 / chroma_me=1 / trellis=2 / 8x8dct=1 / cqm=0 / deadzone=21,11 / fast_pskip=1 / chroma_qp_offset=-3 / threads=72 / lookahead_threads=3 / sliced_threads=0 / nr=0 / decimate=1 / interlaced=0 / bluray_compat=0 / constrained_intra=0 / bframes=3 / b_pyramid=2 / b_adapt=1 / b_bias=0 / direct=3 / weightb=1 / open_gop=0 / weightp=2 / keyint=250 / keyint_min=25 / scenecut=40 / intra_refresh=0 / rc_lookahead=50 / rc=2pass / mbtree=1 / bitrate=11500 / ratetol=1.0 / qcomp=0.60 / qpmin=0 / qpmax=69 / qpstep=4 / cplxblur=20.0 / qblur=0.5 / vbv_maxrate=31250 / vbv_bufsize=31250 / nal_hrd=none / filler=0 / ip_ratio=1.40 / aq=1:1.00
Language                                 : English
Default                                  : Yes
Forced                                   : No

Audio
ID                                       : 2
ID in the original source medium         : 4353 (0x1101)
Format                                   : DTS XLL
Format/Info                              : Digital Theater Systems
Commercial name                          : DTS-HD Master Audio
Codec ID                                 : A_DTS
Duration                                 : 1 h 54 min
Bit rate mode                            : Variable
Bit rate                                 : 4 178 kb/s
Channel(s)                               : 6 channels
Channel layout                           : C L R Ls Rs LFE
Sampling rate                            : 48.0 kHz
Frame rate                               : 93.750 FPS (512 SPF)
Bit depth                                : 24 bits
Compression mode                         : Lossless
Stream size                              : 3.35 GiB (27%)
Title                                    : DTS-HD MA 5.1
Language                                 : English
Default                                  : Yes
Forced                                   : No
Original source medium                   : Blu-ray

Text #1
ID                                       : 3
Format                                   : UTF-8
Codec ID                                 : S_TEXT/UTF8
Codec ID/Info                            : UTF-8 Plain Text
Duration                                 : 1 h 47 min
Bit rate                                 : 34 b/s
Count of elements                        : 770
Stream size                              : 27.0 KiB (0%)
Title                                    : SRT
Language                                 : English
Default                                  : Yes
Forced                                   : No

Text #2
ID                                       : 4
ID in the original source medium         : 4610 (0x1202)
Format                                   : PGS
Muxing mode                              : zlib
Codec ID                                 : S_HDMV/PGS
Codec ID/Info                            : Picture based subtitle format used on BDs/HD-DVDs
Duration                                 : 1 h 47 min
Bit rate                                 : 19.4 kb/s
Count of elements                        : 1544
Stream size                              : 15.0 MiB (0%)
Language                                 : English
Default                                  : No
Forced                                   : No
Original source medium                   : Blu-ray

Menu
00:00:00.000                             : Chapter 01
00:09:24.375                             : Chapter 02
00:19:24.375                             : Chapter 03
00:28:32.541                             : Chapter 04
00:38:27.833                             : Chapter 05
00:50:18.708                             : Chapter 06
00:58:24.875                             : Chapter 07
01:07:01.625                             : Chapter 08
01:18:17.125                             : Chapter 09
01:24:28.375                             : Chapter 10
01:34:54.541                             : Chapter 11
01:41:03.416                             : Chapter 12

536ee3222e06c983955846b599c58a81.png

[/url]24af4c044e57af5e641454f449253688.png

[/url]



                                                                                                                                                                                                        
                                                                                                                                                                                                                                                                                                                                                                                                                                                                                                                                                                                                                                                                                                                                                                                                                                                        
17509b2803a8494718bb7936a78ac153.torrent (16.36 KB, 下载次数: 0)

回复

使用道具 举报

小黑屋|西西论坛

本网站所有资源来自网络,如无意中侵犯了您的权益,请发邮件至 [email protected],立即清除相关链接

GMT+8, 2021-10-20 12:56 , Processed in 0.119707 second(s), 17 queries .

Powered by Discuz! X3.2

© 2001-2013 Comsenz Inc.

快速回复 返回顶部 返回列表