西西论坛

 找回密码
 立即注册
搜索

幻想续集 Fantasm.Comes.Again.1977.1080p.BluRay.x264.AAC2.0-PTP 7.15GB

[复制链接]
admin 发表于 2021-10-22 16:37:14 | 显示全部楼层 |阅读模式
幻想续集 Fantasm.Comes.Again.1977.1080p.BluRay.x264.AAC2.0-PTP 7.15GB                                                                                                                                                                              -->
帖子完整标题:幻想续集 Fantasm.Comes.Again.1977.1080p.BluRay.x264.AAC2.0-PTP 7.15GB





◎译  名 幻想续集/Fantasm '99/Fantasm 2/My Best Time
◎片  名 Fantasm Comes Again
◎年  代 1977
◎产  地 澳大利亚
◎类  别 喜剧
◎语  言 英语
◎上映日期 1977-12-26
◎豆瓣评分 5.6/10 from 78 users
◎ 
◎片  长 94 分钟
◎导  演 柯林·艾格斯顿 Colin Eggleston
◎主  演 Antony I. Ginnane Antony I. Ginnane
     约翰·希曼 John Seeman
     坎蒂·桑普尔斯 Candy Samples
     帕特·曼宁 Pat Manning
     Sam Menning Sam Menning
     William Margold William Margold
     迈克·瑞吉 Mike Ranger
     约翰·福尔摩斯 John Holmes
     Titus Moede Titus Moede
     塞丽娜 Serena
     Johnny Legend Johnny Legend
     杰西·亚当 Jesse Adams
     乌席·迪加尔 Uschi Digard
     谢里尔·史密斯 Cheryl Smith

◎标  签  | 澳大利亚 | 幻想续集 | 1977 | 美国电影 | 澳大利亚电影 | W-Cult | Ozploitation

◎简  介

  An intern and a professional writer at a newspaper agency read over 10 different erotic letters detailing the erotic escapes of various women for their sexual advice column.
Video
ID             : 1
Format           : AVC
Format/Info          : Advanced Video Codec
Format profile         :
Format settings        : CABAC / 5 Ref Frames
Format settings, CABAC       : Yes
Format settings, Reference frames  : 5 frames
Codec ID           : V_MPEG4/ISO/AVC
Duration           : 1 h 38 min
Bit rate           : 10 000 kb/s
Width            : 1 440 pixels
Height           : 1 080 pixels
Display aspect ratio       : 4:3
Frame rate mode        : Constant
Frame rate           : 23.976 (24000/1001/189150) FPS
Color space          : YUV
Chroma subsampling       : 4:2:0
Bit depth          : 8 bits
Scan type          : Progressive
Bits/(Pixel*Frame)       : 0.268
Stream size          : 6.90 GiB (97%)
Writing library        : x264 core 157 r2935 545de2f
Encoding settings        : cabac=1 / ref=5 / deblock=1:-3:-3 / analyse=0x3:0x133 / me=umh / subme=10 / psy=1 / psy_rd=1.00:0.00 / mixed_ref=1 / me_range=32 / chroma_me=1 / trellis=2 / 8x8dct=1 / cqm=0 / deadzone=21,11 / fast_pskip=0 / chroma_qp_offset=-2 / threads=18 / lookahead_threads=4 / sliced_threads=0 / nr=0 / decimate=0 / interlaced=0 / bluray_compat=0 / constrained_intra=0 / bframes=16 / b_pyramid=2 / b_adapt=2 / b_bias=0 / direct=3 / weightb=1 / open_gop=0 / weightp=2 / keyint=240 / keyint_min=24 / scenecut=40 / intra_refresh=0 / rc_lookahead=60 / rc=2pass / mbtree=0 / bitrate=10000 / ratetol=1.0 / qcomp=0.60 / qpmin=0 / qpmax=69 / qpstep=4 / cplxblur=20.0 / qblur=0.5 / vbv_maxrate=62500 / vbv_bufsize=78125 / nal_hrd=none / filler=0 / ip_ratio=1.40 / pb_ratio=1.30 / aq=2:1.00
Default            : Yes
Forced           : No
Color range          : Limited
Color primaries        : BT.709
Transfer characteristics     : BT.709
Matrix coefficients        : BT.709

Audio #1
ID             : 2
Format           : AAC LC
Format/Info          : Advanced Audio Codec Low Complexity
Codec ID           : A_AAC-2
Duration           : 1 h 38 min
Bit rate           : 265 kb/s
Channel(s)           : 2 channels
Channel layout         : L R
Sampling rate          : 48.0 kHz
Frame rate           : 46.875 FPS (1024 SPF)
Compression mode         : Lossy
Stream size          : 188 MiB (3%)
Language           : English
Default            : Yes
Forced           : No

Audio #2
ID             : 3
Format           : AAC LC
Format/Info          : Advanced Audio Codec Low Complexity
Codec ID           : A_AAC-2
Duration           : 1 h 38 min
Bit rate           : 82.9 kb/s
Channel(s)           : 2 channels
Channel layout         : L R
Sampling rate          : 48.0 kHz
Frame rate           : 46.875 FPS (1024 SPF)
Compression mode         : Lossy
Stream size          : 58.6 MiB (1%)
Title            : Commentary with producer and creator Antony Ginnane
Language           : English
Default            : No
Forced           : No

Text #1
ID             : 4
Format           : UTF-8
Codec ID           : S_TEXT/UTF8
Codec ID/Info          : UTF-8 Plain Text
Duration           : 1 h 33 min
Bit rate           : 41 b/s
Count of elements        : 989
Stream size          : 28.1 KiB (0%)
Title            : SRT
Language           : English
Default            : Yes
Forced           : No

Text #2
ID             : 5
Format           : PGS
Muxing mode          : zlib
Codec ID           : S_HDMV/PGS
Codec ID/Info          : Picture based subtitle format used on BDs/HD-DVDs
Duration           : 1 h 35 min
Bit rate           : 24.8 kb/s
Count of elements        : 2906
Stream size          : 17.0 MiB (0%)
Language           : English
Default            : No
Forced           : No

Menu
00:00:00.000         : :Chapter 1
00:26:59.451         : :Chapter 2
00:50:40.204         : :Chapter 3
01:18:39.673         : :Chapter 4

[/url]

[/url]

[/url]




                                                                  
                                                                                                                                                                                                                                                                                 
f14b4b92e6cf1fd2328469433e8efae6.torrent (18.49 KB, 下载次数: 0)

回复

使用道具 举报

小黑屋|西西论坛

本网站所有资源来自网络,如无意中侵犯了您的权益,请发邮件至 [email protected],立即清除相关链接

GMT+8, 2024-7-18 23:10 , Processed in 0.097441 second(s), 30 queries .

Powered by Discuz! X3.2

© 2001-2013 Comsenz Inc.

快速回复 返回顶部 返回列表