西西论坛

 找回密码
 立即注册
搜索

邻家男孩 The.Boys.Next.Door.1985.1080p.BluRay.x264-GAZER 10.30GB

[复制链接]
admin 发表于 2021-9-14 09:53:01 | 显示全部楼层 |阅读模式
邻家男孩 The.Boys.Next.Door.1985.1080p.BluRay.x264-GAZER 10.30GB                                                                                                                                                                                                                                                                                                                                                                                                                                                                                                                                        -->
帖子完整标题:邻家男孩 The.Boys.Next.Door.1985.1080p.BluRay.x264-GAZER 10.30GB





◎译  名 邻家男孩
◎片  名 The Boys Next Door
◎年  代 1985
◎产  地 美国
◎类  别 剧情 / 惊悚 / 犯罪
◎语  言 英语
◎上映日期 1986-03-14
◎豆瓣评分 /10 from 0 users
◎豆瓣链接 
◎片  长 91 分钟
◎导  演 佩内洛普·斯皮瑞斯 Penelope Spheeris
◎编  剧 黄毅瑜 James Wong / 格伦·摩根 Glen Morgan
◎主  演 卡门·菲尔皮 Carmen Filpi
       汉克盖瑞特 Hank Garrett
       Carlos Guitarlos Carlos Guitarlos
       菲尔·鲁本斯坦 Phil Rubenstein
       Mary Tiffany Mary Tiffany
       Moon Unit Zappa Moon Unit Zappa
       Ray Lykins Ray Lykins
       Don Draper Don Draper
       John Escobar John Escobar
       麦克西维尔·考菲德 Maxwell Caulfield
       格兰特·赫斯洛夫 Grant Heslov
       查理·辛 Charlie Sheen
       帕蒂·达班维尔 Patti D'Arbanville
       Richard Halpern Richard Halpern
       克里斯托弗·麦克唐纳 Christopher McDonald
       Vance Colvig Jr. Vance Colvig Jr.
       布莱基·达米特 Blackie Dammett
       Geoff Brewer Geoff Brewer
       Helen Brown Helen Brown
       Joseph Michael Cala Joseph Michael Cala

◎标  签 美国 | 美国电影 | 同性 | 犯罪 | 同志 | 觉得很gay的片子你都看过 | 恐怖 | 惊悚

◎简  介

  Sheen and Caulfield are Bo and Roy, respectively, two California high school grads who vent their frustrations by going on a killing spree. In a hard-hitting, semidocumentary-like style, the film examines the damaged psyches of these two killers as they wend their way throughout Los Angeles randomly choosing and then murdering their victims. The murder scenes are especially brutal, but don't border on the gratuitous as they serve to illustrate the duo's twisted minds. There's a subplot of gay bashing (one of the film's most disturbing sequences) which brings to light Roy's closeted homosexual feelings.
  
  Gay sexual repression resulting in a spree of rage and death is the disturbing theme to this teen drama. Two male high schoolers and best friends go on a rampage of violence, killing a gay man (that they pick up in a gay bar) and then killing with abandon. Could the unresolved sexual attraction and tension between the two be the cause of their psychotic behavior?
Video
ID                                       : 1
Format                                   : AVC
Format/Info                              : Advanced Video Codec
Format profile                           :
Format settings                          : CABAC / 4 Ref Frames
Format settings, CABAC                   : Yes
Format settings, Reference frames        : 4 frames
Codec ID                                 : V_MPEG4/ISO/AVC
Duration                                 : 1 h 30 min
Bit rate                                 : 15.8 Mb/s
Width                                    : 1 920 pixels
Height                                   : 1 038 pixels
Display aspect ratio                     : 1.85:1
Frame rate mode                          : Constant
Frame rate                               : 23.976 (24000/1001/189150) FPS
Color space                              : YUV
Chroma subsampling                       : 4:2:0
Bit depth                                : 8 bits
Scan type                                : Progressive
Bits/(Pixel*Frame)                       : 0.330
Stream size                              : 10.0 GiB (97%)
Writing library                          : x264 core 164 r3065 ae03d92
Encoding settings                        : cabac=1 / ref=4 / deblock=1:-3:-3 / analyse=0x3:0x133 / me=umh / subme=10 / psy=1 / psy_rd=1.50:0.15 / mixed_ref=1 / me_range=24 / chroma_me=1 / trellis=2 / 8x8dct=1 / cqm=0 / deadzone=21,11 / fast_pskip=0 / chroma_qp_offset=-3 / threads=24 / lookahead_threads=4 / sliced_threads=0 / nr=0 / decimate=0 / interlaced=0 / bluray_compat=0 / constrained_intra=0 / bframes=8 / b_pyramid=2 / b_adapt=2 / b_bias=0 / direct=3 / weightb=1 / open_gop=0 / weightp=2 / keyint=250 / keyint_min=23 / scenecut=40 / intra_refresh=0 / rc_lookahead=60 / rc=crf / mbtree=1 / crf=22.5 / qcomp=0.60 / qpmin=0 / qpmax=69 / qpstep=4 / ip_ratio=1.40 / aq=3:0.50
Default                                  : Yes
Forced                                   : No
Color range                              : Limited
Matrix coefficients                      : BT.709

Audio #1
ID                                       : 2
Format                                   : FLAC
Format/Info                              : Free Lossless Audio Codec
Codec ID                                 : A_FLAC
Duration                                 : 1 h 30 min
Bit rate mode                            : Variable
Bit rate                                 : 352 kb/s
Channel(s)                               : 2 channels
Channel layout                           : L R
Sampling rate                            : 48.0 kHz
Frame rate                               : 11.719 FPS (4096 SPF)
Bit depth                                : 16 bits
Compression mode                         : Lossless
Stream size                              : 229 MiB (2%)
Writing library                          : libFLAC 1.3.3 (UTC 2019-08-04)
Language                                 : English
Default                                  : Yes
Forced                                   : No

Audio #2
ID                                       : 3
Format                                   : AAC LC
Format/Info                              : Advanced Audio Codec Low Complexity
Codec ID                                 : A_AAC-2
Duration                                 : 1 h 30 min
Bit rate                                 : 96.0 kb/s
Channel(s)                               : 2 channels
Channel layout                           : L R
Sampling rate                            : 48.0 kHz
Frame rate                               : 46.875 FPS (1024 SPF)
Compression mode                         : Lossy
Delay relative to video                  : 20 ms
Stream size                              : 62.4 MiB (1%)
Title                                    : Commentary
Language                                 : English
Default                                  : No
Forced                                   : No

Text
ID                                       : 4
Format                                   : PGS
Muxing mode                              : zlib
Codec ID                                 : S_HDMV/PGS
Codec ID/Info                            : Picture based subtitle format used on BDs/HD-DVDs
Duration                                 : 1 h 26 min
Bit rate                                 : 34.4 kb/s
Count of elements                        : 2110
Stream size                              : 21.3 MiB (0%)
Title                                    : SDH
Language                                 : English
Default                                  : No
Forced                                   : No

Menu
00:00:00.000                             : Chapter 01
00:12:59.612                             : Chapter 02
00:26:37.429                             : Chapter 03
00:42:02.770                             : Chapter 04
00:57:44.544                             : Chapter 05
01:15:18.180                             : Chapter 06
01:27:46.344                             : Chapter 07





                                                                                                                                                                                                        
                                                                                                                                                                                                                                                                                                                                                                                                                                                                                                                                                                                                                                                                                                                                                                                                                                                        
4259bfb866d0c0a2065bc1bb05e712f7.torrent (13.62 KB, 下载次数: 0)

回复

使用道具 举报

小黑屋|西西论坛

本网站所有资源来自网络,如无意中侵犯了您的权益,请发邮件至 [email protected],立即清除相关链接

GMT+8, 2021-9-26 21:56 , Processed in 0.124647 second(s), 17 queries .

Powered by Discuz! X3.2

© 2001-2013 Comsenz Inc.

快速回复 返回顶部 返回列表