西西论坛

 找回密码
 立即注册
搜索

星际旅行2:可汗怒吼 Star.Trek.II.The.Wrath.of.Khan.1982.REMASTERED.DC.1080p.BluRa ...

[复制链接]
admin 发表于 2021-9-14 09:52:47 | 显示全部楼层 |阅读模式
星际旅行2:可汗怒吼 Star.Trek.II.The.Wrath.of.Khan.1982.REMASTERED.DC.1080p.BluRay.x264.D                                                                                                                                                                                                                                                                                                                                                                                                                                                                                                                                        -->
帖子完整标题:星际旅行2:可汗怒吼 Star.Trek.II.The.Wrath.of.Khan.1982.REMASTERED.DC.1080p.BluRay.x264.DTS-HD.MA.7.1-FGT 12.64GB



9c37487a45b3a63359d187504f2819e3.jpg



◎译  名 星际旅行2:可汗怒吼/Star Trek 2/星空奇遇记2:大汗的愤怒(港)/星舰奇航记2:星战大怒吼(台)/星舰迷航记2/星际争霸战2/星际迷航2:可汗之怒
◎片  名 Star Trek II: The Wrath of Khan
◎年  代 1982
◎产  地 美国
◎类  别 动作 / 科幻 / 惊悚 / 冒险
◎语  言 英语
◎上映日期 1982-06-04
◎豆瓣评分 7.7/10 from 12080 users
◎豆瓣链接 
◎片  长 113分钟
◎导  演 尼古拉斯·迈耶 Nicholas Meyer
◎编  剧 杰克·B·索厄德斯 Jack B. Sowards / 尼古拉斯·迈耶 Nicholas Meyer
◎主  演 威廉·夏特纳 William Shatner
       伦纳德·尼莫伊 Leonard Nimoy
       德福雷斯特·凯利 DeForest Kelley
       詹姆斯·杜汉 James Doohan
       沃尔特·凯尼格 Walter Koenig
       武井乔治 George Takei
       尼切尔·尼克斯 Nichelle Nichols
       比比·贝什 Bibi Besch
       梅里特·布瑞克 Merritt Butrick
       保罗·温菲尔德 Paul Winfield
       柯尔斯蒂·艾利 Kirstie Alley
       里卡多·蒙特尔班 Ricardo Montalban
       艾克·艾森曼 Ike Eisenmann
       约翰·瓦尔加斯 John Vargas
       约翰·温斯顿 John Winston

◎标  签 科幻 | 美国 | StarTrek | 星际迷航 | 1982 | 经典 | 美国电影 | 电影

◎简  介

  邪恶的可汗逃脱十五年前被寇克船长拘禁的星球,他本人是一位智勇双全的领袖,但此刻已变成一个邪恶的狂人,他誓言要向寇克船长讨回血仇。于是他先劫持了一艘联邦战舰,后又偷取了寇克船长的儿子和旧情人制造的毁灭性武器。并引诱企业号投入他精心设计的圈套……
Video
ID                                       : 1
Format                                   : AVC
Format/Info                              : Advanced Video Codec
Format profile                           :
Format settings                          : CABAC / 4 Ref Frames
Format settings, CABAC                   : Yes
Format settings, Reference frames        : 4 frames
Codec ID                                 : V_MPEG4/ISO/AVC
Duration                                 : 1 h 56 min
Bit rate                                 : 11.5 Mb/s
Width                                    : 1 920 pixels
Height                                   : 804 pixels
Display aspect ratio                     : 2.40:1
Frame rate mode                          : Constant
Frame rate                               : 23.976 (24000/1001/189150) FPS
Color space                              : YUV
Chroma subsampling                       : 4:2:0
Bit depth                                : 8 bits
Scan type                                : Progressive
Bits/(Pixel*Frame)                       : 0.311
Stream size                              : 9.35 GiB (74%)
Writing library                          : x264 core 148 r2795M aaa9aa8
Encoding settings                        : cabac=1 / ref=4 / deblock=1:-2:-2 / analyse=0x3:0x113 / me=umh / subme=9 / psy=1 / psy_rd=1.00:0.15 / mixed_ref=1 / me_range=16 / chroma_me=1 / trellis=2 / 8x8dct=1 / cqm=0 / deadzone=21,11 / fast_pskip=1 / chroma_qp_offset=-3 / threads=72 / lookahead_threads=3 / sliced_threads=0 / nr=0 / decimate=1 / interlaced=0 / bluray_compat=0 / constrained_intra=0 / bframes=3 / b_pyramid=2 / b_adapt=1 / b_bias=0 / direct=3 / weightb=1 / open_gop=0 / weightp=2 / keyint=250 / keyint_min=25 / scenecut=40 / intra_refresh=0 / rc_lookahead=50 / rc=2pass / mbtree=1 / bitrate=11500 / ratetol=1.0 / qcomp=0.60 / qpmin=0 / qpmax=69 / qpstep=4 / cplxblur=20.0 / qblur=0.5 / vbv_maxrate=31250 / vbv_bufsize=31250 / nal_hrd=none / filler=0 / ip_ratio=1.40 / aq=1:1.00
Language                                 : English
Default                                  : Yes
Forced                                   : No

Audio
ID                                       : 2
Format                                   : DTS XLL
Format/Info                              : Digital Theater Systems
Commercial name                          : DTS-HD Master Audio
Codec ID                                 : A_DTS
Duration                                 : 1 h 56 min
Bit rate mode                            : Variable
Bit rate                                 : 3 949 kb/s
Channel(s)                               : 8 channels
Channel layout                           : C L R LFE Lb Rb Lss Rss
Sampling rate                            : 48.0 kHz
Frame rate                               : 93.750 FPS (512 SPF)
Bit depth                                : 24 bits
Compression mode                         : Lossless
Stream size                              : 3.21 GiB (25%)
Title                                    : DTS-HD MA 7.1
Language                                 : English
Default                                  : No
Forced                                   : No

Text #1
ID                                       : 3
Format                                   : UTF-8
Codec ID                                 : S_TEXT/UTF8
Codec ID/Info                            : UTF-8 Plain Text
Duration                                 : 1 h 47 min
Bit rate                                 : 54 b/s
Count of elements                        : 1140
Stream size                              : 42.7 KiB (0%)
Title                                    : SRT
Language                                 : English
Default                                  : Yes
Forced                                   : No

Text #2
ID                                       : 4
ID in the original source medium         : 4608 (0x1200)
Format                                   : PGS
Muxing mode                              : zlib
Codec ID                                 : S_HDMV/PGS
Codec ID/Info                            : Picture based subtitle format used on BDs/HD-DVDs
Duration                                 : 1 h 47 min
Bit rate                                 : 34.5 kb/s
Count of elements                        : 2286
Stream size                              : 26.6 MiB (0%)
Language                                 : English
Default                                  : No
Forced                                   : No
Original source medium                   : Blu-ray

Text #3
ID                                       : 5
ID in the original source medium         : 4609 (0x1201)
Format                                   : PGS
Muxing mode                              : zlib
Codec ID                                 : S_HDMV/PGS
Codec ID/Info                            : Picture based subtitle format used on BDs/HD-DVDs
Duration                                 : 1 h 47 min
Bit rate                                 : 37.0 kb/s
Count of elements                        : 2456
Stream size                              : 28.6 MiB (0%)
Language                                 : English
Default                                  : No
Forced                                   : No
Original source medium                   : Blu-ray

Text #4
ID                                       : 6
ID in the original source medium         : 4610 (0x1202)
Format                                   : PGS
Muxing mode                              : zlib
Codec ID                                 : S_HDMV/PGS
Codec ID/Info                            : Picture based subtitle format used on BDs/HD-DVDs
Duration                                 : 1 h 53 min
Bit rate                                 : 27.0 kb/s
Count of elements                        : 1910
Stream size                              : 22.0 MiB (0%)
Language                                 : Danish
Default                                  : No
Forced                                   : No
Original source medium                   : Blu-ray

Text #5
ID                                       : 7
ID in the original source medium         : 4611 (0x1203)
Format                                   : PGS
Muxing mode                              : zlib
Codec ID                                 : S_HDMV/PGS
Codec ID/Info                            : Picture based subtitle format used on BDs/HD-DVDs
Duration                                 : 1 h 55 min
Bit rate                                 : 28.8 kb/s
Count of elements                        : 2106
Stream size                              : 23.9 MiB (0%)
Language                                 : German
Default                                  : No
Forced                                   : No
Original source medium                   : Blu-ray

Text #6
ID                                       : 8
ID in the original source medium         : 4612 (0x1204)
Format                                   : PGS
Muxing mode                              : zlib
Codec ID                                 : S_HDMV/PGS
Codec ID/Info                            : Picture based subtitle format used on BDs/HD-DVDs
Duration                                 : 1 h 55 min
Bit rate                                 : 31.4 kb/s
Count of elements                        : 2116
Stream size                              : 26.0 MiB (0%)
Language                                 : Spanish
Default                                  : No
Forced                                   : No
Original source medium                   : Blu-ray

Text #7
ID                                       : 9
ID in the original source medium         : 4613 (0x1205)
Format                                   : PGS
Muxing mode                              : zlib
Codec ID                                 : S_HDMV/PGS
Codec ID/Info                            : Picture based subtitle format used on BDs/HD-DVDs
Duration                                 : 1 h 55 min
Bit rate                                 : 26.9 kb/s
Count of elements                        : 2150
Stream size                              : 22.2 MiB (0%)
Language                                 : French
Default                                  : No
Forced                                   : No
Original source medium                   : Blu-ray

Text #8
ID                                       : 10
ID in the original source medium         : 4614 (0x1206)
Format                                   : PGS
Muxing mode                              : zlib
Codec ID                                 : S_HDMV/PGS
Codec ID/Info                            : Picture based subtitle format used on BDs/HD-DVDs
Duration                                 : 1 h 48 min
Bit rate                                 : 19.3 kb/s
Count of elements                        : 2136
Stream size                              : 14.9 MiB (0%)
Language                                 : Japanese
Default                                  : No
Forced                                   : No
Original source medium                   : Blu-ray

Text #9
ID                                       : 11
ID in the original source medium         : 4615 (0x1207)
Format                                   : PGS
Muxing mode                              : zlib
Codec ID                                 : S_HDMV/PGS
Codec ID/Info                            : Picture based subtitle format used on BDs/HD-DVDs
Duration                                 : 1 h 53 min
Bit rate                                 : 26.1 kb/s
Count of elements                        : 1646
Stream size                              : 21.2 MiB (0%)
Language                                 : Dutch
Default                                  : No
Forced                                   : No
Original source medium                   : Blu-ray

Text #10
ID                                       : 12
ID in the original source medium         : 4616 (0x1208)
Format                                   : PGS
Muxing mode                              : zlib
Codec ID                                 : S_HDMV/PGS
Codec ID/Info                            : Picture based subtitle format used on BDs/HD-DVDs
Duration                                 : 1 h 53 min
Bit rate                                 : 25.4 kb/s
Count of elements                        : 1730
Stream size                              : 20.6 MiB (0%)
Language                                 : Norwegian
Default                                  : No
Forced                                   : No
Original source medium                   : Blu-ray

Text #11
ID                                       : 13
ID in the original source medium         : 4617 (0x1209)
Format                                   : PGS
Muxing mode                              : zlib
Codec ID                                 : S_HDMV/PGS
Codec ID/Info                            : Picture based subtitle format used on BDs/HD-DVDs
Duration                                 : 1 h 53 min
Bit rate                                 : 27.4 kb/s
Count of elements                        : 1910
Stream size                              : 22.3 MiB (0%)
Language                                 : Finnish
Default                                  : No
Forced                                   : No
Original source medium                   : Blu-ray

Text #12
ID                                       : 14
ID in the original source medium         : 4618 (0x120A)
Format                                   : PGS
Muxing mode                              : zlib
Codec ID                                 : S_HDMV/PGS
Codec ID/Info                            : Picture based subtitle format used on BDs/HD-DVDs
Duration                                 : 1 h 53 min
Bit rate                                 : 24.8 kb/s
Count of elements                        : 1740
Stream size                              : 20.1 MiB (0%)
Language                                 : Swedish
Default                                  : No
Forced                                   : No
Original source medium                   : Blu-ray

Menu
00:00:00.000                             : Chapter 01
00:02:59.137                             : Chapter 02
00:07:44.464                             : Chapter 03
00:11:53.504                             : Chapter 04
00:25:38.995                             : Chapter 05
00:31:57.332                             : Chapter 06
00:42:53.904                             : Chapter 07
00:48:12.055                             : Chapter 08
00:57:45.462                             : Chapter 09
01:08:36.862                             : Chapter 10
01:13:55.472                             : Chapter 11
01:18:59.818                             : Chapter 12
01:21:23.628                             : Chapter 13
01:26:43.948                             : Chapter 14
01:32:07.563                             : Chapter 15
01:38:48.130                             : Chapter 16
01:51:02.072                             : Chapter 17

23b10c9af3afaa10f93d9ec0071047c4.png

[/url]f318c51298855ec5104a290d05cb8338.png

[/url]064d1bcd71fdaefd42264105eb670e96.png

[/url]



                                                                                                                                                                                                        
                                                                                                                                                                                                                                                                                                                                                                                                                                                                                                                                                                                                                                                                                                                                                                                                                                                        
0a52146d59cf5e06b3f55834c6ad7a4c.torrent (16.51 KB, 下载次数: 0)

回复

使用道具 举报

小黑屋|西西论坛

本网站所有资源来自网络,如无意中侵犯了您的权益,请发邮件至 [email protected],立即清除相关链接

GMT+8, 2021-9-26 21:06 , Processed in 0.110818 second(s), 17 queries .

Powered by Discuz! X3.2

© 2001-2013 Comsenz Inc.

快速回复 返回顶部 返回列表