西西论坛

 找回密码
 立即注册
搜索

星际旅行2:可汗怒吼 Star.Trek.II.The.Wrath.of.Khan.1982.REMASTERED.DC.1080p.BluRa ...

[复制链接]
admin 发表于 5 天前 | 显示全部楼层 |阅读模式
星际旅行2:可汗怒吼 Star.Trek.II.The.Wrath.of.Khan.1982.REMASTERED.DC.1080p.BluRay.x264.D                                                                                                                                                                                                                                                                                                                                                                                                                                                                                                                                        -->
帖子完整标题:星际旅行2:可汗怒吼 Star.Trek.II.The.Wrath.of.Khan.1982.REMASTERED.DC.1080p.BluRay.x264.DTS-FGT 10.58GB



6f4802fbfb2c268f20e764a18427dc75.jpg



◎译  名 星际旅行2:可汗怒吼/Star Trek 2/星空奇遇记2:大汗的愤怒(港)/星舰奇航记2:星战大怒吼(台)/星舰迷航记2/星际争霸战2/星际迷航2:可汗之怒
◎片  名 Star Trek II: The Wrath of Khan
◎年  代 1982
◎产  地 美国
◎类  别 动作 / 科幻 / 惊悚 / 冒险
◎语  言 英语
◎上映日期 1982-06-04
◎豆瓣评分 7.7/10 from 12080 users
◎豆瓣链接 
◎片  长 113分钟
◎导  演 尼古拉斯·迈耶 Nicholas Meyer
◎编  剧 杰克·B·索厄德斯 Jack B. Sowards / 尼古拉斯·迈耶 Nicholas Meyer
◎主  演 威廉·夏特纳 William Shatner
       伦纳德·尼莫伊 Leonard Nimoy
       德福雷斯特·凯利 DeForest Kelley
       詹姆斯·杜汉 James Doohan
       沃尔特·凯尼格 Walter Koenig
       武井乔治 George Takei
       尼切尔·尼克斯 Nichelle Nichols
       比比·贝什 Bibi Besch
       梅里特·布瑞克 Merritt Butrick
       保罗·温菲尔德 Paul Winfield
       柯尔斯蒂·艾利 Kirstie Alley
       里卡多·蒙特尔班 Ricardo Montalban
       艾克·艾森曼 Ike Eisenmann
       约翰·瓦尔加斯 John Vargas
       约翰·温斯顿 John Winston

◎标  签 科幻 | 美国 | StarTrek | 星际迷航 | 1982 | 经典 | 美国电影 | 电影

◎简  介

  邪恶的可汗逃脱十五年前被寇克船长拘禁的星球,他本人是一位智勇双全的领袖,但此刻已变成一个邪恶的狂人,他誓言要向寇克船长讨回血仇。于是他先劫持了一艘联邦战舰,后又偷取了寇克船长的儿子和旧情人制造的毁灭性武器。并引诱企业号投入他精心设计的圈套……
Video
ID                                       : 1
Format                                   : AVC
Format/Info                              : Advanced Video Codec
Format profile                           :
Format settings                          : CABAC / 4 Ref Frames
Format settings, CABAC                   : Yes
Format settings, Reference frames        : 4 frames
Codec ID                                 : V_MPEG4/ISO/AVC
Duration                                 : 1 h 56 min
Bit rate                                 : 11.5 Mb/s
Width                                    : 1 920 pixels
Height                                   : 804 pixels
Display aspect ratio                     : 2.40:1
Frame rate mode                          : Constant
Frame rate                               : 23.976 (24000/1001/189150) FPS
Color space                              : YUV
Chroma subsampling                       : 4:2:0
Bit depth                                : 8 bits
Scan type                                : Progressive
Bits/(Pixel*Frame)                       : 0.311
Stream size                              : 9.35 GiB (88%)
Writing library                          : x264 core 148 r2795M aaa9aa8
Encoding settings                        : cabac=1 / ref=4 / deblock=1:-2:-2 / analyse=0x3:0x113 / me=umh / subme=9 / psy=1 / psy_rd=1.00:0.15 / mixed_ref=1 / me_range=16 / chroma_me=1 / trellis=2 / 8x8dct=1 / cqm=0 / deadzone=21,11 / fast_pskip=1 / chroma_qp_offset=-3 / threads=72 / lookahead_threads=3 / sliced_threads=0 / nr=0 / decimate=1 / interlaced=0 / bluray_compat=0 / constrained_intra=0 / bframes=3 / b_pyramid=2 / b_adapt=1 / b_bias=0 / direct=3 / weightb=1 / open_gop=0 / weightp=2 / keyint=250 / keyint_min=25 / scenecut=40 / intra_refresh=0 / rc_lookahead=50 / rc=2pass / mbtree=1 / bitrate=11500 / ratetol=1.0 / qcomp=0.60 / qpmin=0 / qpmax=69 / qpstep=4 / cplxblur=20.0 / qblur=0.5 / vbv_maxrate=31250 / vbv_bufsize=31250 / nal_hrd=none / filler=0 / ip_ratio=1.40 / aq=1:1.00
Language                                 : English
Default                                  : Yes
Forced                                   : No

Audio
ID                                       : 2
Format                                   : DTS
Format/Info                              : Digital Theater Systems
Codec ID                                 : A_DTS
Duration                                 : 1 h 56 min
Bit rate mode                            : Constant
Bit rate                                 : 1 509 kb/s
Channel(s)                               : 6 channels
Channel layout                           : C L R Ls Rs LFE
Sampling rate                            : 48.0 kHz
Frame rate                               : 93.750 FPS (512 SPF)
Bit depth                                : 24 bits
Compression mode                         : Lossy
Stream size                              : 1.23 GiB (12%)
Language                                 : English
Default                                  : Yes
Forced                                   : No

Text
ID                                       : 3
Format                                   : UTF-8
Codec ID                                 : S_TEXT/UTF8
Codec ID/Info                            : UTF-8 Plain Text
Duration                                 : 1 h 47 min
Bit rate                                 : 54 b/s
Count of elements                        : 1140
Stream size                              : 42.7 KiB (0%)
Title                                    : SRT
Language                                 : English
Default                                  : Yes
Forced                                   : No

Menu
00:00:00.000                             : Chapter 01
00:02:59.137                             : Chapter 02
00:07:44.464                             : Chapter 03
00:11:53.504                             : Chapter 04
00:25:38.995                             : Chapter 05
00:31:57.332                             : Chapter 06
00:42:53.904                             : Chapter 07
00:48:12.055                             : Chapter 08
00:57:45.462                             : Chapter 09
01:08:36.862                             : Chapter 10
01:13:55.472                             : Chapter 11
01:18:59.818                             : Chapter 12
01:21:23.628                             : Chapter 13
01:26:43.948                             : Chapter 14
01:32:07.563                             : Chapter 15
01:38:48.130                             : Chapter 16
01:51:02.072                             : Chapter 17

e49852e73b6d0c00808f09afec3a175c.png

[/url]131c667a3ec510eee01ddc6c3eb1c59d.png

[/url]d8b82fb19d06712a14d1f5c8da458e42.png

[/url]



                                                                                                                                                                                                        
                                                                                                                                                                                                                                                                                                                                                                                                                                                                                                                                                                                                                                                                                                                                                                                                                                                        
5821cc42474f877d0201b8b6e4be8e36.torrent (13.91 KB, 下载次数: 0)

回复

使用道具 举报

小黑屋|西西论坛

本网站所有资源来自网络,如无意中侵犯了您的权益,请发邮件至 [email protected],立即清除相关链接

GMT+8, 2021-9-19 15:59 , Processed in 0.156486 second(s), 17 queries .

Powered by Discuz! X3.2

© 2001-2013 Comsenz Inc.

快速回复 返回顶部 返回列表