西西论坛

 找回密码
 立即注册
搜索

Wild Combination: A Portrait of Arthur Russell Wild.Combination.A.Portrait.of.Ar

[复制链接]
admin 发表于 5 天前 | 显示全部楼层 |阅读模式
Wild Combination: A Portrait of Arthur Russell Wild.Combination.A.Portrait.of.Ar                                                                                                                                                                                                                                                                                                                                                                                                                                                                                                                                        -->
帖子完整标题:Wild Combination: A Portrait of Arthur Russell Wild.Combination.A.Portrait.of.Arthur.Russell.2008.1080p.BluRay.x264.DD5.1-HANDJOB 6.22GB



6cb301b8dea0a0680ec91711f6f150ea.jpg



◎片  名 Wild Combination: A Portrait of Arthur Russell
◎年  代 2008
◎产  地 美国
◎类  别 纪录片
◎语  言 英语
◎上映日期 2008-02-13
◎豆瓣评分 /10 from 0 users
◎豆瓣链接 
◎片  长 71分钟
◎导  演 马特·沃尔夫 Matt Wolf
◎主  演 David Toop David Toop
       菲利普·格拉斯 Philip Glass

◎标  签 纪录片 | 美国 | 2008 | Arthur-Russell | 素材 | 剧情 | WEB | P-BerlinB入围全景单元

◎简  介

  http://www.arthurrussellmovie.com
  
  特别版海报:
  
  
  
  
  
  
  
  
  
  
  
  WILD COMBINATION is director Matt Wolf’s visually absorbing portrait of the seminal avant-garde composer, singer-songwriter, cellist, and disco producer Arthur Russell. Before his untimely death from AIDS in 1992, Arthur prolifically created music that spanned both pop and the transcendent possibilities of abstract art. Now, over fifteen years since his passing, Arthur's work is finally finding its audience. Wolf incorporates rare archival footage and commentary from Arthur's family, friends, and closest collaborators—including Philip Glass and Allen Ginsberg—to tell this poignant and important story.
Video
ID                                       : 1
Format                                   : AVC
Format/Info                              : Advanced Video Codec
Format profile                           :
Format settings                          : CABAC / 4 Ref Frames
Format settings, CABAC                   : Yes
Format settings, Reference frames        : 4 frames
Codec ID                                 : V_MPEG4/ISO/AVC
Duration                                 : 1 h 11 min
Bit rate                                 : 11.7 Mb/s
Width                                    : 1 920 pixels
Height                                   : 1 080 pixels
Display aspect ratio                     : 16:9
Frame rate mode                          : Constant
Frame rate                               : 23.976 (24000/1001/189150) FPS
Color space                              : YUV
Chroma subsampling                       : 4:2:0
Bit depth                                : 8 bits
Scan type                                : Progressive
Bits/(Pixel*Frame)                       : 0.236
Stream size                              : 5.85 GiB (94%)
Writing library                          : x264 core 157 r2935 545de2f
Encoding settings                        : cabac=1 / ref=4 / deblock=1:-3:-3 / analyse=0x3:0x133 / me=umh / subme=10 / psy=1 / psy_rd=1.00:0.00 / mixed_ref=1 / me_range=32 / chroma_me=1 / trellis=2 / 8x8dct=1 / cqm=0 / deadzone=21,11 / fast_pskip=0 / chroma_qp_offset=-2 / threads=24 / lookahead_threads=6 / sliced_threads=0 / nr=0 / decimate=0 / interlaced=0 / bluray_compat=0 / constrained_intra=0 / bframes=16 / b_pyramid=2 / b_adapt=2 / b_bias=0 / direct=3 / weightb=1 / open_gop=0 / weightp=2 / keyint=240 / keyint_min=24 / scenecut=40 / intra_refresh=0 / rc_lookahead=60 / rc=crf / mbtree=0 / crf=18.0 / qcomp=0.60 / qpmin=0 / qpmax=69 / qpstep=4 / vbv_maxrate=62500 / vbv_bufsize=78125 / crf_max=0.0 / nal_hrd=none / filler=0 / ip_ratio=1.40 / pb_ratio=1.30 / aq=2:1.00
Language                                 : English
Default                                  : Yes
Forced                                   : No
Color range                              : Limited
Color primaries                          : BT.709
Transfer characteristics                 : BT.709
Matrix coefficients                      : BT.709

Audio #1
ID                                       : 2
Format                                   : AC-3
Format/Info                              : Audio Coding 3
Commercial name                          : Dolby Digital
Codec ID                                 : A_AC3
Duration                                 : 1 h 11 min
Bit rate mode                            : Constant
Bit rate                                 : 640 kb/s
Channel(s)                               : 6 channels
Channel layout                           : L R C LFE Ls Rs
Sampling rate                            : 48.0 kHz
Frame rate                               : 31.250 FPS (1536 SPF)
Compression mode                         : Lossy
Stream size                              : 327 MiB (5%)
Language                                 : English
Service kind                             : Complete Main
Default                                  : Yes
Forced                                   : No

Audio #2
ID                                       : 3
Format                                   : AAC LC
Format/Info                              : Advanced Audio Codec Low Complexity
Codec ID                                 : A_AAC-2
Duration                                 : 1 h 11 min
Bit rate                                 : 96.0 kb/s
Channel(s)                               : 2 channels
Channel layout                           : L R
Sampling rate                            : 48.0 kHz
Frame rate                               : 46.875 FPS (1024 SPF)
Compression mode                         : Lossy
Stream size                              : 49.9 MiB (1%)
Title                                    : Commentary with Directory Matt Wolf
Language                                 : English
Default                                  : No
Forced                                   : No

Text
ID                                       : 4
Format                                   : UTF-8
Codec ID                                 : S_TEXT/UTF8
Codec ID/Info                            : UTF-8 Plain Text
Duration                                 : 1 h 10 min
Bit rate                                 : 93 b/s
Count of elements                        : 1038
Stream size                              : 48.7 KiB (0%)
Language                                 : English
Default                                  : No
Forced                                   : No

Menu
00:00:00.000                             : :Seeing the Clouds
00:04:06.496                             : :Runaway Cellist
00:12:16.277                             : :Arthur\'s Flying Heart
00:19:16.614                             : :The Kitchen
00:25:24.231                             : :Instrumentals
00:29:52.874                             : :Sleeping Bag Records
00:36:51.459                             : :I Stopped Dancing
00:43:42.703                             : :Boundless Echoes
00:49:55.284                             : :Good Sport
00:57:49.007                             : :Sense of Iowa
01:05:25.338                             : :Rediscovering Arthur\'s Genius
01:08:31.399                             : :Credits

e4e1b8d5cf42ece6d224030953bcab07.png

[/url]378f9f363d1243b63602ee00f0e924ca.png

[/url]9c73c83415b523414e61a3520449b748.png

[/url]



                                                                                                                                                                                                        
                                                                                                                                                                                                                                                                                                                                                                                                                                                                                                                                                                                                                                                                                                                                                                                                                                                        
dba7472e47c6668164fa84ce32cdcbe2.torrent (16.24 KB, 下载次数: 0)

回复

使用道具 举报

小黑屋|西西论坛

本网站所有资源来自网络,如无意中侵犯了您的权益,请发邮件至 [email protected],立即清除相关链接

GMT+8, 2021-9-19 16:48 , Processed in 0.122934 second(s), 17 queries .

Powered by Discuz! X3.2

© 2001-2013 Comsenz Inc.

快速回复 返回顶部 返回列表