西西论坛

 找回密码
 立即注册
搜索

星际旅行3:石破天惊 Star.Trek.III.The.Search.for.Spock.1984.REMASTERED.720p.BluRa ...

[复制链接]
admin 发表于 5 天前 | 显示全部楼层 |阅读模式
星际旅行3:石破天惊 Star.Trek.III.The.Search.for.Spock.1984.REMASTERED.720p.BluRay.x264-O                                                                                                                                                                                                                                                                                                                                                                                                                                                                                                                                        -->
帖子完整标题:星际旅行3:石破天惊 Star.Trek.III.The.Search.for.Spock.1984.REMASTERED.720p.BluRay.x264-OLDTiME 5.01GB





◎译  名 星际旅行3:石破天惊/Star Trek 3/星空奇遇记3:魔宫龙虎斗(港)/星舰奇航记3:石破天惊(台)/星舰迷航记3/星际争霸战3/星际迷航:寻找史波克/星际迷航3
◎片  名 Star Trek III: The Search for Spock
◎年  代 1984
◎产  地 美国
◎类  别 动作 / 科幻 / 惊悚 / 冒险
◎语  言 英语
◎上映日期 1984-06-01
◎豆瓣评分 7.3/10 from 7872 users
◎豆瓣链接 
◎片  长 105分钟
◎导  演 伦纳德·尼莫伊 Leonard Nimoy
◎编  剧 阿尔夫·贝内 Harve Bennett
◎主  演 威廉·夏特纳 William Shatner
       伦纳德·尼莫伊 Leonard Nimoy
       德福雷斯特·凯利 DeForest Kelley
       詹姆斯·杜汉 James Doohan
       沃尔特·凯尼格 Walter Koenig
       约翰·拉尔奎特 John Larroquette
       米盖尔·弗尔 Miguel Ferrer
       Scott McGinnis Scott McGinnis
       马克·雷纳德 Mark Lenard
       克里斯托弗·洛伊德 Christopher Lloyd
       珍妮·莫里 Jeanne Mori
       菲尔·莫里斯 Phil Morris
       梅里特·布瑞克 Merritt Butrick
       尼切尔·尼克斯 Nichelle Nichols
       武井乔治 George Takei
       罗宾·柯蒂斯 Robin Curtis
       卡尔·斯蒂文 Carl Steven

◎标  签 科幻 | 美国 | StarTrek | 星际迷航 | 1984 | 经典 | 电影 | 美国电影

◎简  介

  2285年,在与可汗的战斗中损坏的联邦星舰进取号,返回了地球的太空港以进行维修。柯克还在为斯波克的死感到悲伤。麦科伊医生出现了种种异常的行为:如擅自闯入被封锁的斯波克原来的舱房、胡言乱语等,最后他被送进了医院进行精神检查。斯科提被另分派到了联邦星舰精进号。星际舰队指挥部 对新形成的创世星下达了禁入令。柯克被告知,进取号即将除役。
  
  斯波克的父亲沙瑞克找到柯克并告诉他,斯波克的遗体必须返回瓦肯星,否则他的灵魂就不得安息。沙瑞克要求柯克必须回到创世星,寻回斯波克的遗棺并将它带回瓦肯星——而斯波克临死前与麦科伊进行了心灵融合,因此带有斯波克灵魂的麦科伊也必须前往瓦肯星。
  
  可是,星际舰队拒绝让陈旧的进取号离开太空港。从医院出来后听闻消息的麦科伊,企图招募一艘飞船回到创世星。在与人争吵时他被逮捕,但这并没有影响到整个计划:在柯克、斯科特、苏鲁、乌乎拉和切科夫的帮助下麦科伊顺利逃脱,并一同登上了被废弃的进取号。为了避免被追击,斯科提还破坏了精进号的引擎。六名伙伴冒着毁掉毕生事业的风险,驾驶进取号航向创世星。
  
  其间,克林贡人得知了创世计划和创世星的消息。由于担心联邦将其改造为一种新式武器,克鲁格船长率领一艘克林贡猛禽战舰,去夺取或摧毁这一战略性的武器。
  
  在联邦星舰葛瑞森号上,戴维·马库斯博士与莎维可上尉在创世星的轨道上进行着科学观测。他们很快便在地面上发现了生命形式,出于好奇心的驱使,他们俩传送上了星球表面并发现了斯波克空荡的遗棺。循着生命形式的读数,他们发现了幼年斯波克的活体:成长速度奇快,但却没有意识或灵魂。
  
  克林贡人在此时也抵达了创世星,他们摧毁了葛瑞森号并抓获莎维可、马库斯和少年的斯波克作为人质。不一会,进取号也抵达穆塔拉星区(Mutara Sector),很快就被克鲁格与他的一群克林贡战士攻击到瘫痪。由于克林贡人威胁将夺去人质的生命,柯克使用了一个计谋来重新掌控局势,但并未成功。戴维·马库斯随后被克林贡人杀害。由于没有其他的选择,柯克只得向克林贡人投降。柯克为了重新占据上风,冒死一搏启动了进取号的自毁程序。进取号的船员随后传送上了创世星,目睹着进取号在一片亮光中毁灭,同时也捎带上了克鲁格大部分的战士。
  
  柯克最终与他的团队从克林贡人手中营救了斯波克与莎维可,并在与克鲁格的一对一战斗中杀死了他。由于创世星独特的力量,斯波克的遗体得以重生,并随着创世星衰老的速度迅速地成长。在离开不稳定的创世星时,斯波克刚好达到死亡前的年龄。在登上夺来的猛禽舰时,创世星开始了剧烈的爆炸。
  
  在沙瑞克的庇护下,猛禽舰抵达了瓦肯星。在经历了危险的“浮图邦术”仪式后,斯波克的灵魂离开了麦科伊的意识回到了自己的身体中。仪式最终成功,复活的斯波克开始重新回忆他的过去与朋友。他问进取号的船员们,为什么要冒着失去生命与毁掉事业的危险营救他;柯克告诉他,有些时候需要“牺牲小我,成全大我”。
Video
ID                                       : 1
Format                                   : AVC
Format/Info                              : Advanced Video Codec
Format profile                           :
Format settings                          : CABAC / 8 Ref Frames
Format settings, CABAC                   : Yes
Format settings, Reference frames        : 8 frames
Codec ID                                 : V_MPEG4/ISO/AVC
Duration                                 : 1 h 45 min
Bit rate                                 : 5 830 kb/s
Width                                    : 1 280 pixels
Height                                   : 544 pixels
Display aspect ratio                     : 2.35:1
Frame rate mode                          : Constant
Frame rate                               : 23.976 (24000/1001/189150) FPS
Color space                              : YUV
Chroma subsampling                       : 4:2:0
Bit depth                                : 8 bits
Scan type                                : Progressive
Bits/(Pixel*Frame)                       : 0.349
Stream size                              : 4.29 GiB (85%)
Writing library                          : x264 core 164 r3065 ae03d92
Encoding settings                        : cabac=1 / ref=8 / deblock=1:-3:-3 / analyse=0x3:0x133 / me=umh / subme=9 / psy=1 / psy_rd=1.00:0.00 / mixed_ref=1 / me_range=16 / chroma_me=1 / trellis=2 / 8x8dct=1 / cqm=0 / deadzone=21,11 / fast_pskip=0 / chroma_qp_offset=-2 / threads=17 / lookahead_threads=1 / sliced_threads=0 / nr=0 / decimate=1 / interlaced=0 / bluray_compat=0 / constrained_intra=0 / bframes=3 / b_pyramid=2 / b_adapt=2 / b_bias=0 / direct=3 / weightb=1 / open_gop=0 / weightp=2 / keyint=250 / keyint_min=23 / scenecut=40 / intra_refresh=0 / rc_lookahead=60 / rc=crf / mbtree=1 / crf=18.5 / qcomp=0.60 / qpmin=0 / qpmax=69 / qpstep=4 / ip_ratio=1.40 / aq=1:1.00
Language                                 : English
Default                                  : Yes
Forced                                   : No

Audio #1
ID                                       : 2
Format                                   : AC-3
Format/Info                              : Audio Coding 3
Commercial name                          : Dolby Digital
Format settings                          : Dolby Surround EX
Codec ID                                 : A_AC3
Duration                                 : 1 h 45 min
Bit rate mode                            : Constant
Bit rate                                 : 640 kb/s
Channel(s)                               : 6 channels
Channel layout                           : L R C LFE Ls Rs
Sampling rate                            : 48.0 kHz
Frame rate                               : 31.250 FPS (1536 SPF)
Compression mode                         : Lossy
Delay relative to video                  : 8 ms
Stream size                              : 482 MiB (9%)
Language                                 : English
Service kind                             : Complete Main
Default                                  : Yes
Forced                                   : No

Audio #2
ID                                       : 3
Format                                   : AAC LC
Format/Info                              : Advanced Audio Codec Low Complexity
Codec ID                                 : A_AAC-2
Duration                                 : 1 h 45 min
Bit rate                                 : 117 kb/s
Channel(s)                               : 2 channels
Channel layout                           : L R
Sampling rate                            : 48.0 kHz
Frame rate                               : 46.875 FPS (1024 SPF)
Compression mode                         : Lossy
Delay relative to video                  : 9 ms
Stream size                              : 88.1 MiB (2%)
Title                                    : commentary
Language                                 : English
Default                                  : No
Forced                                   : No

Text #1
ID                                       : 4
Format                                   : UTF-8
Codec ID                                 : S_TEXT/UTF8
Codec ID/Info                            : UTF-8 Plain Text
Duration                                 : 1 h 12 min
Bit rate                                 : 1 b/s
Count of elements                        : 37
Stream size                              : 691 Bytes (0%)
Title                                    : forced srt
Language                                 : English
Default                                  : Yes
Forced                                   : Yes

Text #2
ID                                       : 5
Format                                   : PGS
Muxing mode                              : zlib
Codec ID                                 : S_HDMV/PGS
Codec ID/Info                            : Picture based subtitle format used on BDs/HD-DVDs
Duration                                 : 1 h 38 min
Bit rate                                 : 29.1 kb/s
Count of elements                        : 1952
Stream size                              : 20.5 MiB (0%)
Language                                 : English
Default                                  : No
Forced                                   : No

Text #3
ID                                       : 6
Format                                   : PGS
Muxing mode                              : zlib
Codec ID                                 : S_HDMV/PGS
Codec ID/Info                            : Picture based subtitle format used on BDs/HD-DVDs
Duration                                 : 1 h 38 min
Bit rate                                 : 32.7 kb/s
Count of elements                        : 2250
Stream size                              : 23.1 MiB (0%)
Language                                 : English
Default                                  : No
Forced                                   : No

Text #4
ID                                       : 7
Format                                   : PGS
Muxing mode                              : zlib
Codec ID                                 : S_HDMV/PGS
Codec ID/Info                            : Picture based subtitle format used on BDs/HD-DVDs
Duration                                 : 1 h 44 min
Bit rate                                 : 22.4 kb/s
Count of elements                        : 1416
Stream size                              : 16.8 MiB (0%)
Language                                 : Danish
Default                                  : No
Forced                                   : No

Text #5
ID                                       : 8
Format                                   : PGS
Muxing mode                              : zlib
Codec ID                                 : S_HDMV/PGS
Codec ID/Info                            : Picture based subtitle format used on BDs/HD-DVDs
Duration                                 : 1 h 44 min
Bit rate                                 : 27.4 kb/s
Count of elements                        : 1718
Stream size                              : 20.6 MiB (0%)
Language                                 : German
Default                                  : No
Forced                                   : No

Text #6
ID                                       : 9
Format                                   : PGS
Muxing mode                              : zlib
Codec ID                                 : S_HDMV/PGS
Codec ID/Info                            : Picture based subtitle format used on BDs/HD-DVDs
Duration                                 : 1 h 44 min
Bit rate                                 : 27.4 kb/s
Count of elements                        : 1720
Stream size                              : 20.5 MiB (0%)
Language                                 : Spanish
Default                                  : No
Forced                                   : No

Text #7
ID                                       : 10
Format                                   : PGS
Muxing mode                              : zlib
Codec ID                                 : S_HDMV/PGS
Codec ID/Info                            : Picture based subtitle format used on BDs/HD-DVDs
Duration                                 : 1 h 44 min
Bit rate                                 : 23.6 kb/s
Count of elements                        : 1726
Stream size                              : 17.7 MiB (0%)
Language                                 : French
Default                                  : No
Forced                                   : No

Text #8
ID                                       : 11
Format                                   : PGS
Muxing mode                              : zlib
Codec ID                                 : S_HDMV/PGS
Codec ID/Info                            : Picture based subtitle format used on BDs/HD-DVDs
Duration                                 : 1 h 39 min
Bit rate                                 : 19.2 kb/s
Count of elements                        : 1852
Stream size                              : 13.6 MiB (0%)
Language                                 : Japanese
Default                                  : No
Forced                                   : No

Text #9
ID                                       : 12
Format                                   : PGS
Muxing mode                              : zlib
Codec ID                                 : S_HDMV/PGS
Codec ID/Info                            : Picture based subtitle format used on BDs/HD-DVDs
Duration                                 : 1 h 44 min
Bit rate                                 : 21.9 kb/s
Count of elements                        : 1334
Stream size                              : 16.5 MiB (0%)
Language                                 : Dutch
Default                                  : No
Forced                                   : No

Text #10
ID                                       : 13
Format                                   : PGS
Muxing mode                              : zlib
Codec ID                                 : S_HDMV/PGS
Codec ID/Info                            : Picture based subtitle format used on BDs/HD-DVDs
Duration                                 : 1 h 44 min
Bit rate                                 : 26.6 kb/s
Count of elements                        : 1716
Stream size                              : 19.9 MiB (0%)
Language                                 : Norwegian
Default                                  : No
Forced                                   : No

Text #11
ID                                       : 14
Format                                   : PGS
Muxing mode                              : zlib
Codec ID                                 : S_HDMV/PGS
Codec ID/Info                            : Picture based subtitle format used on BDs/HD-DVDs
Duration                                 : 1 h 44 min
Bit rate                                 : 23.6 kb/s
Count of elements                        : 1538
Stream size                              : 17.7 MiB (0%)
Language                                 : Finnish
Default                                  : No
Forced                                   : No

Text #12
ID                                       : 15
Format                                   : PGS
Muxing mode                              : zlib
Codec ID                                 : S_HDMV/PGS
Codec ID/Info                            : Picture based subtitle format used on BDs/HD-DVDs
Duration                                 : 1 h 44 min
Bit rate                                 : 21.1 kb/s
Count of elements                        : 1406
Stream size                              : 15.8 MiB (0%)
Language                                 : Swedish
Default                                  : No
Forced                                   : No

Text #13
ID                                       : 16
Format                                   : PGS
Muxing mode                              : zlib
Codec ID                                 : S_HDMV/PGS
Codec ID/Info                            : Picture based subtitle format used on BDs/HD-DVDs
Duration                                 : 1 h 40 min
Bit rate                                 : 51.1 kb/s
Count of elements                        : 2331
Stream size                              : 36.7 MiB (1%)
Language                                 : English
Default                                  : No
Forced                                   : No

Text #14
ID                                       : 17
Format                                   : PGS
Muxing mode                              : zlib
Codec ID                                 : S_HDMV/PGS
Codec ID/Info                            : Picture based subtitle format used on BDs/HD-DVDs
Duration                                 : 1 h 44 min
Bit rate                                 : 42.0 kb/s
Count of elements                        : 1905
Stream size                              : 31.4 MiB (1%)
Language                                 : German
Default                                  : No
Forced                                   : No

Text #15
ID                                       : 18
Format                                   : PGS
Muxing mode                              : zlib
Codec ID                                 : S_HDMV/PGS
Codec ID/Info                            : Picture based subtitle format used on BDs/HD-DVDs
Duration                                 : 1 h 44 min
Bit rate                                 : 38.3 kb/s
Count of elements                        : 1913
Stream size                              : 28.7 MiB (1%)
Language                                 : Spanish
Default                                  : No
Forced                                   : No

Text #16
ID                                       : 19
Format                                   : PGS
Muxing mode                              : zlib
Codec ID                                 : S_HDMV/PGS
Codec ID/Info                            : Picture based subtitle format used on BDs/HD-DVDs
Duration                                 : 1 h 44 min
Bit rate                                 : 42.9 kb/s
Count of elements                        : 2013
Stream size                              : 32.1 MiB (1%)
Language                                 : French
Default                                  : No
Forced                                   : No

Text #17
ID                                       : 20
Format                                   : PGS
Muxing mode                              : zlib
Codec ID                                 : S_HDMV/PGS
Codec ID/Info                            : Picture based subtitle format used on BDs/HD-DVDs
Duration                                 : 1 h 40 min
Bit rate                                 : 37.5 kb/s
Count of elements                        : 1954
Stream size                              : 26.9 MiB (1%)
Language                                 : Japanese
Default                                  : No
Forced                                   : No

Text #18
ID                                       : 21
Format                                   : PGS
Muxing mode                              : zlib
Codec ID                                 : S_HDMV/PGS
Codec ID/Info                            : Picture based subtitle format used on BDs/HD-DVDs
Duration                                 : 1 h 39 min
Bit rate                                 : 78.1 kb/s
Count of elements                        : 3548
Stream size                              : 55.7 MiB (1%)
Language                                 : English
Default                                  : No
Forced                                   : No

Text #19
ID                                       : 22
Format                                   : PGS
Muxing mode                              : zlib
Codec ID                                 : S_HDMV/PGS
Codec ID/Info                            : Picture based subtitle format used on BDs/HD-DVDs
Duration                                 : 1 h 45 min
Bit rate                                 : 65.8 kb/s
Count of elements                        : 3548
Stream size                              : 49.5 MiB (1%)
Language                                 : German
Default                                  : No
Forced                                   : No

Text #20
ID                                       : 23
Format                                   : PGS
Muxing mode                              : zlib
Codec ID                                 : S_HDMV/PGS
Codec ID/Info                            : Picture based subtitle format used on BDs/HD-DVDs
Duration                                 : 1 h 45 min
Bit rate                                 : 60.9 kb/s
Count of elements                        : 3550
Stream size                              : 45.8 MiB (1%)
Language                                 : Spanish
Default                                  : No
Forced                                   : No

Text #21
ID                                       : 24
Format                                   : PGS
Muxing mode                              : zlib
Codec ID                                 : S_HDMV/PGS
Codec ID/Info                            : Picture based subtitle format used on BDs/HD-DVDs
Duration                                 : 1 h 45 min
Bit rate                                 : 62.0 kb/s
Count of elements                        : 3552
Stream size                              : 46.6 MiB (1%)
Language                                 : French
Default                                  : No
Forced                                   : No

Text #22
ID                                       : 25
Format                                   : PGS
Muxing mode                              : zlib
Codec ID                                 : S_HDMV/PGS
Codec ID/Info                            : Picture based subtitle format used on BDs/HD-DVDs
Duration                                 : 1 h 39 min
Bit rate                                 : 44.7 kb/s
Count of elements                        : 2583
Stream size                              : 31.9 MiB (1%)
Language                                 : Japanese
Default                                  : No
Forced                                   : No

Text #23
ID                                       : 26
Format                                   : PGS
Muxing mode                              : zlib
Codec ID                                 : S_HDMV/PGS
Codec ID/Info                            : Picture based subtitle format used on BDs/HD-DVDs
Duration                                 : 1 h 12 min
Bit rate                                 : 864 b/s
Count of elements                        : 74
Stream size                              : 459 KiB (0%)
Title                                    : forced
Language                                 : English
Default                                  : No
Forced                                   : No

Text #24
ID                                       : 27
Format                                   : PGS
Muxing mode                              : zlib
Codec ID                                 : S_HDMV/PGS
Codec ID/Info                            : Picture based subtitle format used on BDs/HD-DVDs
Duration                                 : 1 h 36 min
Bit rate                                 : 78 b/s
Count of elements                        : 4
Stream size                              : 55.7 KiB (0%)
Title                                    : forced
Language                                 : German
Default                                  : No
Forced                                   : No

Text #25
ID                                       : 28
Format                                   : PGS
Muxing mode                              : zlib
Codec ID                                 : S_HDMV/PGS
Codec ID/Info                            : Picture based subtitle format used on BDs/HD-DVDs
Duration                                 : 1 h 18 min
Bit rate                                 : 906 b/s
Count of elements                        : 68
Stream size                              : 519 KiB (0%)
Title                                    : forced
Language                                 : Spanish
Default                                  : No
Forced                                   : No

Text #26
ID                                       : 29
Format                                   : PGS
Muxing mode                              : zlib
Codec ID                                 : S_HDMV/PGS
Codec ID/Info                            : Picture based subtitle format used on BDs/HD-DVDs
Duration                                 : 1 h 36 min
Bit rate                                 : 745 b/s
Count of elements                        : 72
Stream size                              : 527 KiB (0%)
Title                                    : forced
Language                                 : French
Default                                  : No
Forced                                   : No

Text #27
ID                                       : 30
Format                                   : PGS
Muxing mode                              : zlib
Codec ID                                 : S_HDMV/PGS
Codec ID/Info                            : Picture based subtitle format used on BDs/HD-DVDs
Duration                                 : 1 h 25 min
Bit rate                                 : 248 b/s
Count of elements                        : 20
Stream size                              : 156 KiB (0%)
Title                                    : forced
Language                                 : Japanese
Default                                  : No
Forced                                   : No

Menu
00:00:00.000                             : en:Chapter 01
00:11:06.291                             : en:Chapter 02
00:22:36.897                             : en:Chapter 03
00:31:33.725                             : en:Chapter 04
00:41:09.092                             : en:Chapter 05
00:47:22.965                             : en:Chapter 06
00:56:09.741                             : en:Chapter 07
01:11:08.431                             : en:Chapter 08
01:16:25.581                             : en:Chapter 09
01:26:20.300                             : en:Chapter 10
01:39:36.679                             : en:Chapter 11

[/url][/url][/url]



                                                                                                                                                                                                        
                                                                                                                                                                                                                                                                                                                                                                                                                                                                                                                                                                                                                                                                                                                                                                                                                                                        
13a44be84709671c25fe81feb4ce3922.torrent (13.31 KB, 下载次数: 0)

回复

使用道具 举报

小黑屋|西西论坛

本网站所有资源来自网络,如无意中侵犯了您的权益,请发邮件至 [email protected],立即清除相关链接

GMT+8, 2021-9-19 09:54 , Processed in 0.123425 second(s), 17 queries .

Powered by Discuz! X3.2

© 2001-2013 Comsenz Inc.

快速回复 返回顶部 返回列表