西西论坛

 找回密码
 立即注册
搜索

诺斯费拉图 Nosferatu.A.Symphony.of.Horror.1922.GERMAN.1080p.BluRay.x264.DTS-HDS ...

[复制链接]
admin 发表于 2021-9-14 09:51:40 | 显示全部楼层 |阅读模式
诺斯费拉图 Nosferatu.A.Symphony.of.Horror.1922.GERMAN.1080p.BluRay.x264.DTS-HDS 17.81                                                                                                                                                                                                                                                                                                                                                                                                                                                                                                                                        -->
帖子完整标题:诺斯费拉图 Nosferatu.A.Symphony.of.Horror.1922.GERMAN.1080p.BluRay.x264.DTS-HDS 17.81GB





◎译  名 诺斯费拉图/Nosferatu, a Symphony of Horror/吸血僵尸(港)/吸血鬼/穆瑙之吸血鬼(台)/诺斯菲拉图:第一个吸血鬼/魔鬼诺斯法雷图
◎片  名 Nosferatu, eine Symphonie des Grauens
◎年  代 1922
◎产  地 德国
◎类  别 恐怖 / 奇幻
◎语  言 无对白
◎上映日期 1922-03-04
◎豆瓣评分 8.2/10 from 11912 users
◎豆瓣链接 
◎片  长 94 分钟
◎导  演 F·W·茂瑙 F.W. Murnau
◎编  剧 亨利克·加仑 Henrik Galeen / 布莱姆·斯托克 Bram Stoker
◎主  演 马科斯·夏瑞克 Max Schreck
       约翰·戈托特 John Gottowt
       格里塔·斯楚瑞德 Greta Schr?der
       Alexander Granach Alexander Granach
       Ruth Landshoff Ruth Landshoff
       马克斯·内梅茨 Max Nemetz
       Georg H. Schnell Georg H. Schnell
       Albert Venohr Albert Venohr
       Wolfgang Heinz Wolfgang Heinz
       Guido Herzfeld Guido Herzfeld
       Karl Etlinger Karl Etlinger
       Gustav Botz Gustav Botz
       古斯塔·冯·瓦根海姆 Gustav von Wangenheim

◎标  签 德国 | 吸血鬼 | 默片 | 恐怖 | 惊悚 | 德国电影 | F.W.Murnau | 茂瑙

◎简  介

  布特(古斯塔夫·冯·沃根海姆 Gustav von Wangenheim 饰)是一家不来梅地产公司的职员,受公司委派去一座古堡与诺斯费拉图伯爵(马科斯·夏瑞克 Max Schreck 饰)做房屋买卖交易,但是在古堡附近的旅店投宿时,人们得知他目的地的反应都很奇怪。到了古堡,见到面目枯槁、行为古怪的诺斯费拉图伯爵,也得知他昼伏夜出的生活习惯,布特对他的身份心生窦疑,终于探知他就是传说中的吸血鬼。布特逃出古堡,伯爵也一路奔向他买好的、位于不来梅的房子。布特回家后,得知吸血鬼伯爵已经到来,而且正是他令小城瘟疫肆虐,他和妻子艾伦(Greta Schr?der 饰)一起,开始设法消灭吸血鬼伯爵……
Video
ID                                       : 1
Format                                   : AVC
Format/Info                              : Advanced Video Codec
Format profile                           :
Format settings                          : CABAC / 4 Ref Frames
Format settings, CABAC                   : Yes
Format settings, Reference frames        : 4 frames
Codec ID                                 : V_MPEG4/ISO/AVC
Duration                                 : 1 h 35 min
Bit rate                                 : 25.3 Mb/s
Width                                    : 1 920 pixels
Height                                   : 1 080 pixels
Display aspect ratio                     : 16:9
Frame rate mode                          : Constant
Frame rate                               : 23.976 (24000/1001/189150) FPS
Color space                              : YUV
Chroma subsampling                       : 4:2:0
Bit depth                                : 8 bits
Scan type                                : Progressive
Bits/(Pixel*Frame)                       : 0.508
Stream size                              : 16.8 GiB (94%)
Default                                  : Yes
Forced                                   : No

Audio
ID                                       : 2
Format                                   : DTS
Format/Info                              : Digital Theater Systems
Codec ID                                 : A_DTS
Duration                                 : 1 h 35 min
Bit rate mode                            : Constant
Bit rate                                 : 1 509 kb/s
Channel(s)                               : 6 channels
Channel layout                           : C L R Ls Rs LFE
Sampling rate                            : 48.0 kHz
Frame rate                               : 93.750 FPS (512 SPF)
Bit depth                                : 24 bits
Compression mode                         : Lossy
Stream size                              : 1.00 GiB (6%)
Language                                 : German
Default                                  : Yes
Forced                                   : No

Text #1
ID                                       : 3
Format                                   : UTF-8
Codec ID                                 : S_TEXT/UTF8
Codec ID/Info                            : UTF-8 Plain Text
Duration                                 : 1 h 31 min
Bit rate                                 : 12 b/s
Count of elements                        : 240
Stream size                              : 8.73 KiB (0%)
Title                                    : SRT
Language                                 : English
Default                                  : Yes
Forced                                   : No

Text #2
ID                                       : 4
Format                                   : PGS
Muxing mode                              : zlib
Codec ID                                 : S_HDMV/PGS
Codec ID/Info                            : Picture based subtitle format used on BDs/HD-DVDs
Duration                                 : 1 h 33 min
Bit rate                                 : 8 672 b/s
Count of elements                        : 245
Stream size                              : 5.82 MiB (0%)
Title                                    : CHS
Language                                 : Chinese
Default                                  : No
Forced                                   : No

Text #3
ID                                       : 5
Format                                   : PGS
Muxing mode                              : zlib
Codec ID                                 : S_HDMV/PGS
Codec ID/Info                            : Picture based subtitle format used on BDs/HD-DVDs
Duration                                 : 1 h 33 min
Bit rate                                 : 8 809 b/s
Count of elements                        : 245
Stream size                              : 5.91 MiB (0%)
Title                                    : CHT
Language                                 : Chinese
Default                                  : No
Forced                                   : No

Menu
00:00:00.000                             : Chapter 01
00:03:31.545                             : Chapter 02
00:10:22.664                             : Chapter 03
00:13:47.285                             : Chapter 04
00:18:47.543                             : Chapter 05
00:26:18.243                             : Chapter 06
00:32:51.469                             : Chapter 07
00:39:20.275                             : Chapter 08
00:43:15.676                             : Chapter 09
00:46:17.775                             : Chapter 10
00:50:35.366                             : Chapter 11
00:54:05.200                             : Chapter 12
01:02:08.725                             : Chapter 13
01:10:40.486                             : Chapter 14
01:16:30.211                             : Chapter 15
01:23:07.232                             : Chapter 16
01:26:31.103                             : Chapter 17
01:30:39.434                             : Chapter 18

[/url][/url][/url]



                                                                                                                                                                                                        
                                                                                                                                                                                                                                                                                                                                                                                                                                                                                                                                                                                                                                                                                                                                                                                                                                                        
3909aaf224866d7b9ec428fb1c000baa.torrent (22.91 KB, 下载次数: 0)

回复

使用道具 举报

小黑屋|西西论坛

本网站所有资源来自网络,如无意中侵犯了您的权益,请发邮件至 [email protected],立即清除相关链接

GMT+8, 2021-9-26 20:22 , Processed in 0.119733 second(s), 17 queries .

Powered by Discuz! X3.2

© 2001-2013 Comsenz Inc.

快速回复 返回顶部 返回列表