西西论坛

 找回密码
 立即注册
搜索

通道 The.Gateway.2021.720p.BluRay.x264-PiGNUS 3.95GB

[复制链接]
admin 发表于 5 天前 | 显示全部楼层 |阅读模式
通道 The.Gateway.2021.720p.BluRay.x264-PiGNUS 3.95GB                                                                                                                                                                                                                                                                                                                                                                                                                                                                                                                                        -->
帖子完整标题:通道 The.Gateway.2021.720p.BluRay.x264-PiGNUS 3.95GB





◎译  名 通道
◎片  名 The Gateway
◎年  代 2021
◎产  地 美国
◎类  别 剧情 / 惊悚 / 犯罪
◎语  言 英语
◎上映日期 2021-09-03(美国)
◎豆瓣评分 5.2/10 from 87 users
◎豆瓣链接 
◎片  长 91分钟
◎导  演 Michele Civetta Michele Civetta
◎编  剧 安德鲁·莱维塔斯 Andrew Levitas / Michele Civetta Michele Civetta
◎主  演 奥立薇娅·玛恩 Olivia Munn
       弗兰克·格里罗 Frank Grillo
       凯斯·大卫 Keith David
       塔恩·曼宁 Taryn Manning
       谢伊·惠格姆 Shea Whigham
       小马克·布恩 Mark Boone Junior
       布鲁斯·邓恩 Bruce Dern
       塔根·伯恩斯 Taegen Burns
       亚历山大·瑞斯 Alexander Wraith
       扎克·艾弗里 Zach Avery
       杰伊·赫农 Jay Hieron

◎标  签 美国 | 犯罪 | 剧情 | 2021 | 暴力社区 | 电影 | SheaWhigham | 其他电影

◎简  介

  弗兰克·格里罗、凯斯·大卫([耐撕侦探])、塔恩·曼宁([女子监狱])、小马克·布恩([混乱之子])加盟谢伊·惠格姆、奥立薇娅·玛恩、布鲁斯·邓恩主演新片[通道](The Gateway,暂译)。米歇尔·西梅塔执导。影片围绕一名热情、严肃的社会工作者展开,他负责照顾一名单身母亲的女儿。
Video
ID                                       : 1
Format                                   : AVC
Format/Info                              : Advanced Video Codec
Format profile                           :
Format settings                          : CABAC / 8 Ref Frames
Format settings, CABAC                   : Yes
Format settings, Reference frames        : 8 frames
Codec ID                                 : V_MPEG4/ISO/AVC
Duration                                 : 1 h 31 min
Bit rate                                 : 5 511 kb/s
Width                                    : 1 280 pixels
Height                                   : 640 pixels
Display aspect ratio                     : 2.000
Frame rate mode                          : Constant
Frame rate                               : 23.976 (24000/1001/189150) FPS
Color space                              : YUV
Chroma subsampling                       : 4:2:0
Bit depth                                : 8 bits
Scan type                                : Progressive
Bits/(Pixel*Frame)                       : 0.281
Stream size                              : 3.51 GiB (89%)
Writing library                          : x264 core 164 r3065 ae03d92
Encoding settings                        : cabac=1 / ref=8 / deblock=1:-3:-3 / analyse=0x3:0x133 / me=umh / subme=9 / psy=1 / psy_rd=1.00:0.00 / mixed_ref=1 / me_range=16 / chroma_me=1 / trellis=2 / 8x8dct=1 / cqm=0 / deadzone=21,11 / fast_pskip=1 / chroma_qp_offset=-2 / threads=20 / lookahead_threads=1 / sliced_threads=0 / nr=0 / decimate=1 / interlaced=0 / bluray_compat=0 / constrained_intra=0 / bframes=3 / b_pyramid=2 / b_adapt=2 / b_bias=0 / direct=3 / weightb=1 / open_gop=0 / weightp=2 / keyint=250 / keyint_min=23 / scenecut=40 / intra_refresh=0 / rc_lookahead=60 / rc=crf / mbtree=1 / crf=15.0 / qcomp=0.60 / qpmin=0 / qpmax=69 / qpstep=4 / ip_ratio=1.40 / aq=1:1.00
Default                                  : Yes
Forced                                   : No

Audio
ID                                       : 2
Format                                   : AC-3
Format/Info                              : Audio Coding 3
Commercial name                          : Dolby Digital
Codec ID                                 : A_AC3
Duration                                 : 1 h 31 min
Bit rate mode                            : Constant
Bit rate                                 : 640 kb/s
Channel(s)                               : 6 channels
Channel layout                           : L R C LFE Ls Rs
Sampling rate                            : 48.0 kHz
Frame rate                               : 31.250 FPS (1536 SPF)
Compression mode                         : Lossy
Stream size                              : 418 MiB (10%)
Language                                 : English
Service kind                             : Complete Main
Default                                  : Yes
Forced                                   : No

Text #1
ID                                       : 3
Format                                   : PGS
Muxing mode                              : zlib
Codec ID                                 : S_HDMV/PGS
Codec ID/Info                            : Picture based subtitle format used on BDs/HD-DVDs
Duration                                 : 1 h 27 min
Bit rate                                 : 39.4 kb/s
Count of elements                        : 2456
Stream size                              : 24.7 MiB (1%)
Title                                    : English SDH
Language                                 : English
Default                                  : No
Forced                                   : No

Text #2
ID                                       : 4
Format                                   : PGS
Muxing mode                              : zlib
Codec ID                                 : S_HDMV/PGS
Codec ID/Info                            : Picture based subtitle format used on BDs/HD-DVDs
Duration                                 : 1 h 29 min
Bit rate                                 : 30.7 kb/s
Count of elements                        : 2084
Stream size                              : 19.7 MiB (0%)
Title                                    : Spanish
Language                                 : Spanish
Default                                  : No
Forced                                   : No

Text #3
ID                                       : 5
Format                                   : PGS
Muxing mode                              : zlib
Codec ID                                 : S_HDMV/PGS
Codec ID/Info                            : Picture based subtitle format used on BDs/HD-DVDs
Duration                                 : 1 h 26 min
Bit rate                                 : 28.2 kb/s
Count of elements                        : 2116
Stream size                              : 17.5 MiB (0%)
Title                                    : French
Language                                 : French
Default                                  : No
Forced                                   : No

Menu
00:00:00.000                             : Chapter 01
00:05:06.806                             : Chapter 02
00:10:32.549                             : Chapter 03
00:15:58.291                             : Chapter 04
00:21:08.350                             : Chapter 05
00:26:30.672                             : Chapter 06
00:32:06.716                             : Chapter 07
00:38:28.848                             : Chapter 08
00:44:24.203                             : Chapter 09
00:49:47.860                             : Chapter 10
00:55:15.646                             : Chapter 11
01:01:26.141                             : Chapter 12
01:06:26.608                             : Chapter 13
01:12:10.910                             : Chapter 14
01:20:53.932                             : Chapter 15
01:24:00.327                             : Chapter 16
01:31:15.261                             : Chapter 17





                                                                                                                                                                                                        
                                                                                                                                                                                                                                                                                                                                                                                                                                                                                                                                                                                                                                                                                                                                                                                                                                                        
527c2086a7a8750899eb022ee1f04972.torrent (20.5 KB, 下载次数: 0)

回复

使用道具 举报

小黑屋|西西论坛

本网站所有资源来自网络,如无意中侵犯了您的权益,请发邮件至 [email protected],立即清除相关链接

GMT+8, 2021-9-19 10:47 , Processed in 0.118690 second(s), 17 queries .

Powered by Discuz! X3.2

© 2001-2013 Comsenz Inc.

快速回复 返回顶部 返回列表