西西论坛

 找回密码
 立即注册
搜索

星际旅行4:抢救未来 Star.Trek.IV.The.Voyage.Home.1986.REMASTERED.720p.BluRay.x264 ...

[复制链接]
admin 发表于 5 天前 | 显示全部楼层 |阅读模式
星际旅行4:抢救未来 Star.Trek.IV.The.Voyage.Home.1986.REMASTERED.720p.BluRay.x264-OLDTiME                                                                                                                                                                                                                                                                                                                                                                                                                                                                                                                                        -->
帖子完整标题:星际旅行4:抢救未来 Star.Trek.IV.The.Voyage.Home.1986.REMASTERED.720p.BluRay.x264-OLDTiME 6.05GB



e0320f094c1af798be5037b748e83fb8.jpg



◎译  名 星际旅行4:抢救未来/Star Trek 4/星空奇遇记4:抢救未来(港)/星舰奇航记4:抢救未来(台)/星舰迷航记4/星际争霸战4/星际迷航4
◎片  名 Star Trek IV: The Voyage Home
◎年  代 1986
◎产  地 美国
◎类  别 喜剧 / 科幻 / 冒险
◎语  言 英语
◎上映日期 1986-11-26
◎豆瓣评分 8.2/10 from 9676 users
◎豆瓣链接 
◎片  长 119 分钟
◎导  演 伦纳德·尼莫伊 Leonard Nimoy
◎编  剧 吉恩·罗登贝瑞 Gene Roddenberry / 伦纳德·尼莫伊 Leonard Nimoy / 彼得·克里克斯 Peter Krikes / Steve Meerson Steve Meerson
◎主  演 威廉·夏特纳 William Shatner
       伦纳德·尼莫伊 Leonard Nimoy
       德福雷斯特·凯利 DeForest Kelley
       詹姆斯·杜汉 James Doohan
       武井乔治 George Takei
       沃尔特·凯尼格 Walter Koenig
       尼切尔·尼克斯 Nichelle Nichols
       简·维亚特 Jane Wyatt
       凯瑟琳·海克丝 Catherine Hicks
       马克·雷纳德 Mark Lenard
       罗宾·柯蒂斯 Robin Curtis
       罗伯特·艾伦斯坦 Robert Ellenstein
       约翰·舒克 John Schuck
       布洛克·皮特斯 Brock Peters
       Kirk R. Thatcher Kirk R. Thatcher
       Monique DeSart Monique DeSart
       马杰尔·巴雷特 Majel Barrett
       格雷斯·李·惠特尼 Grace Lee Whitney

◎标  签 科幻 | 美国 | 星际迷航 | 1986 | startrek | StarTrek | 经典 | 美国电影

◎简  介

  一艘巨大的外星无人探测器向地球航来,它不断地发出奇特的电波信号:功率强大的信号煮沸了海水,干扰了附近的星舰并造成了广泛的破坏。此时,詹姆斯·柯克中将与他的船员们在完成了让斯波克上校复活的任务后,驾驶着从克林贡人那抢来的猛禽舰(被改名为“赏金号”)从瓦肯星返航,尽管他们已经知道了将面临军事法庭的指控:他们被指控盗窃了联邦星舰进取号,并对她的毁坏负有责任。在此关头,尚在恢复中的斯波克发现这艘外星探测器正尝试与地球上的座头鲸建立联系;但不幸的是,早在3个世纪前座头鲸就因过度的捕猎而灭绝了。
  
  柯克命令“赏金号”进入引力弹射状态,利用太阳的万有引力而穿越时空来到20世纪后期。星舰于1986年抵达了美国加利福尼亚州的旧金山市,船员们将星舰藏在金门公园的一处草坪上。此后,他们开始寻找能与外星探测器沟通的鲸鱼、能将鲸鱼装在星舰上的容器,以及能让猛禽舰恢复能源供应的物质——在星舰穿越时空的旅途中能源几乎被耗尽。柯克与斯波克最终获得了一位鲸类专家吉莉安·泰勒博士的协助,她在索萨利托市鲸鱼协会照料两头座头鲸。
  
  在经历了许多的困难后——包括让泰勒相信他们的确来自未来——进取号的船员们成功地营救了两头座头鲸,并将它们带到未来,及时地拯救了地球。然后船员们被带到了联邦委员会的面前,接受众多的指控。没有被作为被告的斯波克也与其他船员们站在了一起。最后,鉴于他们新近的英勇表现,除了对柯克中将的控告外,针对其余被告的所有控告都被撤销。柯克以作为一名上级军官却违背命令的罪行被判有罪,并象征性地被降职为上校以示惩戒;但作为对他英勇行为的表彰,他被任命为联邦星舰进取号-A的舰长。与进取号船员一同来到23世纪的泰勒博士,决定加入星际舰队并成为一名科学官。
  
  作为情节框架的支线剧情,展现了斯波克逐渐地恢复了他的记忆、他此前获得并接受的人类传统,以及他对自己情感的承认。在影片开始时,他不明白母亲询问他的“感觉”有何意义;但到最后,他已能足够意识到“感觉”对人类的重要性,并托父亲告诉母亲,他“感觉良好”。

◎获奖情况

  第59届奥斯卡金像奖 ?(1987)
  最佳摄影(提名) 唐纳德·彼得曼
  最佳音效剪辑(提名) 马克·马基尼
  最佳音响(提名) 吉恩·S·坎塔梅萨?/?大卫·J·哈德森?/?梅尔·梅特卡夫?/?特里·波特
  最佳原创配乐(提名) 利奥纳德·罗森曼
Video
ID                                       : 1
Format                                   : AVC
Format/Info                              : Advanced Video Codec
Format profile                           :
Format settings                          : CABAC / 8 Ref Frames
Format settings, CABAC                   : Yes
Format settings, Reference frames        : 8 frames
Codec ID                                 : V_MPEG4/ISO/AVC
Duration                                 : 1 h 58 min
Bit rate                                 : 6 314 kb/s
Width                                    : 1 280 pixels
Height                                   : 544 pixels
Display aspect ratio                     : 2.35:1
Frame rate mode                          : Constant
Frame rate                               : 23.976 (24000/1001/189150) FPS
Color space                              : YUV
Chroma subsampling                       : 4:2:0
Bit depth                                : 8 bits
Scan type                                : Progressive
Bits/(Pixel*Frame)                       : 0.378
Stream size                              : 5.24 GiB (87%)
Writing library                          : x264 core 164 r3065 ae03d92
Encoding settings                        : cabac=1 / ref=8 / deblock=1:-3:-3 / analyse=0x3:0x133 / me=umh / subme=9 / psy=1 / psy_rd=1.00:0.00 / mixed_ref=1 / me_range=16 / chroma_me=1 / trellis=2 / 8x8dct=1 / cqm=0 / deadzone=21,11 / fast_pskip=0 / chroma_qp_offset=-2 / threads=17 / lookahead_threads=1 / sliced_threads=0 / nr=0 / decimate=1 / interlaced=0 / bluray_compat=0 / constrained_intra=0 / bframes=3 / b_pyramid=2 / b_adapt=2 / b_bias=0 / direct=3 / weightb=1 / open_gop=0 / weightp=2 / keyint=250 / keyint_min=23 / scenecut=40 / intra_refresh=0 / rc_lookahead=60 / rc=crf / mbtree=1 / crf=19.8 / qcomp=0.60 / qpmin=0 / qpmax=69 / qpstep=4 / ip_ratio=1.40 / aq=1:1.00
Language                                 : English
Default                                  : Yes
Forced                                   : No

Audio #1
ID                                       : 2
Format                                   : AC-3
Format/Info                              : Audio Coding 3
Commercial name                          : Dolby Digital
Format settings                          : Dolby Surround EX
Codec ID                                 : A_AC3
Duration                                 : 1 h 58 min
Bit rate mode                            : Constant
Bit rate                                 : 640 kb/s
Channel(s)                               : 6 channels
Channel layout                           : L R C LFE Ls Rs
Sampling rate                            : 48.0 kHz
Frame rate                               : 31.250 FPS (1536 SPF)
Compression mode                         : Lossy
Stream size                              : 544 MiB (9%)
Language                                 : English
Service kind                             : Complete Main
Default                                  : Yes
Forced                                   : No

Audio #2
ID                                       : 3
Format                                   : AAC LC
Format/Info                              : Advanced Audio Codec Low Complexity
Codec ID                                 : A_AAC-2
Duration                                 : 1 h 58 min
Bit rate                                 : 120 kb/s
Channel(s)                               : 2 channels
Channel layout                           : L R
Sampling rate                            : 48.0 kHz
Frame rate                               : 46.875 FPS (1024 SPF)
Compression mode                         : Lossy
Delay relative to video                  : 9 ms
Stream size                              : 102 MiB (2%)
Title                                    : commentary
Language                                 : English
Default                                  : No
Forced                                   : No

Text #1
ID                                       : 4
Format                                   : PGS
Muxing mode                              : zlib
Codec ID                                 : S_HDMV/PGS
Codec ID/Info                            : Picture based subtitle format used on BDs/HD-DVDs
Duration                                 : 1 h 51 min
Bit rate                                 : 40.6 kb/s
Count of elements                        : 2674
Stream size                              : 32.4 MiB (1%)
Language                                 : English
Default                                  : No
Forced                                   : No

Text #2
ID                                       : 5
Format                                   : PGS
Muxing mode                              : zlib
Codec ID                                 : S_HDMV/PGS
Codec ID/Info                            : Picture based subtitle format used on BDs/HD-DVDs
Duration                                 : 1 h 51 min
Bit rate                                 : 42.2 kb/s
Count of elements                        : 2800
Stream size                              : 33.7 MiB (1%)
Language                                 : English
Default                                  : No
Forced                                   : No

Text #3
ID                                       : 6
Format                                   : PGS
Muxing mode                              : zlib
Codec ID                                 : S_HDMV/PGS
Codec ID/Info                            : Picture based subtitle format used on BDs/HD-DVDs
Duration                                 : 1 h 58 min
Bit rate                                 : 29.1 kb/s
Count of elements                        : 1986
Stream size                              : 24.7 MiB (0%)
Language                                 : Danish
Default                                  : No
Forced                                   : No

Text #4
ID                                       : 7
Format                                   : PGS
Muxing mode                              : zlib
Codec ID                                 : S_HDMV/PGS
Codec ID/Info                            : Picture based subtitle format used on BDs/HD-DVDs
Duration                                 : 1 h 58 min
Bit rate                                 : 28.8 kb/s
Count of elements                        : 1870
Stream size                              : 24.4 MiB (0%)
Language                                 : German
Default                                  : No
Forced                                   : No

Text #5
ID                                       : 8
Format                                   : PGS
Muxing mode                              : zlib
Codec ID                                 : S_HDMV/PGS
Codec ID/Info                            : Picture based subtitle format used on BDs/HD-DVDs
Duration                                 : 1 h 58 min
Bit rate                                 : 30.6 kb/s
Count of elements                        : 1848
Stream size                              : 25.9 MiB (0%)
Language                                 : Spanish
Default                                  : No
Forced                                   : No

Text #6
ID                                       : 9
Format                                   : PGS
Muxing mode                              : zlib
Codec ID                                 : S_HDMV/PGS
Codec ID/Info                            : Picture based subtitle format used on BDs/HD-DVDs
Duration                                 : 1 h 58 min
Bit rate                                 : 28.9 kb/s
Count of elements                        : 2146
Stream size                              : 24.5 MiB (0%)
Language                                 : French
Default                                  : No
Forced                                   : No

Text #7
ID                                       : 10
Format                                   : PGS
Muxing mode                              : zlib
Codec ID                                 : S_HDMV/PGS
Codec ID/Info                            : Picture based subtitle format used on BDs/HD-DVDs
Duration                                 : 1 h 54 min
Bit rate                                 : 22.6 kb/s
Count of elements                        : 2472
Stream size                              : 18.5 MiB (0%)
Language                                 : Japanese
Default                                  : No
Forced                                   : No

Text #8
ID                                       : 11
Format                                   : PGS
Muxing mode                              : zlib
Codec ID                                 : S_HDMV/PGS
Codec ID/Info                            : Picture based subtitle format used on BDs/HD-DVDs
Duration                                 : 1 h 58 min
Bit rate                                 : 30.6 kb/s
Count of elements                        : 1844
Stream size                              : 25.9 MiB (0%)
Language                                 : Dutch
Default                                  : No
Forced                                   : No

Text #9
ID                                       : 12
Format                                   : PGS
Muxing mode                              : zlib
Codec ID                                 : S_HDMV/PGS
Codec ID/Info                            : Picture based subtitle format used on BDs/HD-DVDs
Duration                                 : 1 h 58 min
Bit rate                                 : 29.7 kb/s
Count of elements                        : 1824
Stream size                              : 25.1 MiB (0%)
Language                                 : Norwegian
Default                                  : No
Forced                                   : No

Text #10
ID                                       : 13
Format                                   : PGS
Muxing mode                              : zlib
Codec ID                                 : S_HDMV/PGS
Codec ID/Info                            : Picture based subtitle format used on BDs/HD-DVDs
Duration                                 : 1 h 58 min
Bit rate                                 : 28.0 kb/s
Count of elements                        : 1838
Stream size                              : 23.8 MiB (0%)
Language                                 : Finnish
Default                                  : No
Forced                                   : No

Text #11
ID                                       : 14
Format                                   : PGS
Muxing mode                              : zlib
Codec ID                                 : S_HDMV/PGS
Codec ID/Info                            : Picture based subtitle format used on BDs/HD-DVDs
Duration                                 : 1 h 58 min
Bit rate                                 : 26.8 kb/s
Count of elements                        : 1818
Stream size                              : 22.7 MiB (0%)
Language                                 : Swedish
Default                                  : No
Forced                                   : No

Text #12
ID                                       : 15
Format                                   : PGS
Muxing mode                              : zlib
Codec ID                                 : S_HDMV/PGS
Codec ID/Info                            : Picture based subtitle format used on BDs/HD-DVDs
Duration                                 : 1 h 54 min
Bit rate                                 : 47.3 kb/s
Count of elements                        : 2634
Stream size                              : 38.7 MiB (1%)
Language                                 : English
Default                                  : No
Forced                                   : No

Text #13
ID                                       : 16
Format                                   : PGS
Muxing mode                              : zlib
Codec ID                                 : S_HDMV/PGS
Codec ID/Info                            : Picture based subtitle format used on BDs/HD-DVDs
Duration                                 : 1 h 58 min
Bit rate                                 : 45.0 kb/s
Count of elements                        : 2636
Stream size                              : 38.1 MiB (1%)
Language                                 : German
Default                                  : No
Forced                                   : No

Text #14
ID                                       : 17
Format                                   : PGS
Muxing mode                              : zlib
Codec ID                                 : S_HDMV/PGS
Codec ID/Info                            : Picture based subtitle format used on BDs/HD-DVDs
Duration                                 : 1 h 58 min
Bit rate                                 : 42.7 kb/s
Count of elements                        : 2638
Stream size                              : 36.1 MiB (1%)
Language                                 : Spanish
Default                                  : No
Forced                                   : No

Text #15
ID                                       : 18
Format                                   : PGS
Muxing mode                              : zlib
Codec ID                                 : S_HDMV/PGS
Codec ID/Info                            : Picture based subtitle format used on BDs/HD-DVDs
Duration                                 : 1 h 58 min
Bit rate                                 : 37.9 kb/s
Count of elements                        : 2636
Stream size                              : 32.1 MiB (1%)
Language                                 : French
Default                                  : No
Forced                                   : No

Text #16
ID                                       : 19
Format                                   : PGS
Muxing mode                              : zlib
Codec ID                                 : S_HDMV/PGS
Codec ID/Info                            : Picture based subtitle format used on BDs/HD-DVDs
Duration                                 : 1 h 54 min
Bit rate                                 : 29.3 kb/s
Count of elements                        : 1966
Stream size                              : 24.0 MiB (0%)
Language                                 : Japanese
Default                                  : No
Forced                                   : No

Text #17
ID                                       : 20
Format                                   : PGS
Muxing mode                              : zlib
Codec ID                                 : S_HDMV/PGS
Codec ID/Info                            : Picture based subtitle format used on BDs/HD-DVDs
Duration                                 : 1 h 56 min
Bit rate                                 : 46.0 kb/s
Count of elements                        : 2731
Stream size                              : 38.2 MiB (1%)
Language                                 : English
Default                                  : No
Forced                                   : No

Text #18
ID                                       : 21
Format                                   : PGS
Muxing mode                              : zlib
Codec ID                                 : S_HDMV/PGS
Codec ID/Info                            : Picture based subtitle format used on BDs/HD-DVDs
Duration                                 : 1 h 58 min
Bit rate                                 : 42.2 kb/s
Count of elements                        : 2731
Stream size                              : 35.7 MiB (1%)
Language                                 : German
Default                                  : No
Forced                                   : No

Text #19
ID                                       : 22
Format                                   : PGS
Muxing mode                              : zlib
Codec ID                                 : S_HDMV/PGS
Codec ID/Info                            : Picture based subtitle format used on BDs/HD-DVDs
Duration                                 : 1 h 58 min
Bit rate                                 : 40.1 kb/s
Count of elements                        : 2733
Stream size                              : 34.0 MiB (1%)
Language                                 : Spanish
Default                                  : No
Forced                                   : No

Text #20
ID                                       : 23
Format                                   : PGS
Muxing mode                              : zlib
Codec ID                                 : S_HDMV/PGS
Codec ID/Info                            : Picture based subtitle format used on BDs/HD-DVDs
Duration                                 : 1 h 58 min
Bit rate                                 : 32.0 kb/s
Count of elements                        : 2733
Stream size                              : 27.1 MiB (0%)
Language                                 : French
Default                                  : No
Forced                                   : No

Text #21
ID                                       : 24
Format                                   : PGS
Muxing mode                              : zlib
Codec ID                                 : S_HDMV/PGS
Codec ID/Info                            : Picture based subtitle format used on BDs/HD-DVDs
Duration                                 : 1 h 56 min
Bit rate                                 : 25.2 kb/s
Count of elements                        : 2070
Stream size                              : 20.9 MiB (0%)
Language                                 : Japanese
Default                                  : No
Forced                                   : No

Text #22
ID                                       : 25
Format                                   : PGS
Muxing mode                              : zlib
Codec ID                                 : S_HDMV/PGS
Codec ID/Info                            : Picture based subtitle format used on BDs/HD-DVDs
Duration                                 : 54 s 96 ms
Bit rate                                 : 15.4 kb/s
Count of elements                        : 6
Stream size                              : 102 KiB (0%)
Title                                    : forced
Language                                 : German
Default                                  : No
Forced                                   : No

Text #23
ID                                       : 26
Format                                   : PGS
Muxing mode                              : zlib
Codec ID                                 : S_HDMV/PGS
Codec ID/Info                            : Picture based subtitle format used on BDs/HD-DVDs
Duration                                 : 54 s 13 ms
Bit rate                                 : 17.6 kb/s
Count of elements                        : 6
Stream size                              : 116 KiB (0%)
Title                                    : forced
Language                                 : Spanish
Default                                  : No
Forced                                   : No

Text #24
ID                                       : 27
Format                                   : PGS
Muxing mode                              : zlib
Codec ID                                 : S_HDMV/PGS
Codec ID/Info                            : Picture based subtitle format used on BDs/HD-DVDs
Duration                                 : 54 s 96 ms
Bit rate                                 : 18.7 kb/s
Count of elements                        : 8
Stream size                              : 123 KiB (0%)
Title                                    : forced
Language                                 : French
Default                                  : No
Forced                                   : No

Text #25
ID                                       : 28
Format                                   : PGS
Muxing mode                              : zlib
Codec ID                                 : S_HDMV/PGS
Codec ID/Info                            : Picture based subtitle format used on BDs/HD-DVDs
Duration                                 : 1 h 33 min
Bit rate                                 : 376 b/s
Count of elements                        : 20
Stream size                              : 259 KiB (0%)
Title                                    : forced
Language                                 : Japanese
Default                                  : No
Forced                                   : No

Menu
00:00:00.000                             : en:Chapter 01
00:03:08.939                             : en:Chapter 02
00:07:02.172                             : en:Chapter 03
00:13:36.024                             : en:Chapter 04
00:16:43.169                             : en:Chapter 05
00:27:29.940                             : en:Chapter 06
00:36:06.748                             : en:Chapter 07
00:45:25.389                             : en:Chapter 08
00:51:33.424                             : en:Chapter 09
00:58:01.770                             : en:Chapter 10
01:02:57.649                             : en:Chapter 11
01:12:17.667                             : en:Chapter 12
01:17:38.654                             : en:Chapter 13
01:22:44.543                             : en:Chapter 14
01:28:29.304                             : en:Chapter 15
01:37:17.081                             : en:Chapter 16
01:48:14.279                             : en:Chapter 17
01:55:00.727                             : en:Chapter 18

83c5c8282a3c71f7680de3f2c05be270.png

[/url]a3447f14a919b6f7f01525907e2279c6.png

[/url]d5f0fad170d3cedfa045c99736860cc6.png

[/url]



                                                                                                                                                                                                        
                                                                                                                                                                                                                                                                                                                                                                                                                                                                                                                                                                                                                                                                                                                                                                                                                                                        
ab6ac239d4f43a9c0c0eec22c91a0be2.torrent (15.88 KB, 下载次数: 0)

回复

使用道具 举报

小黑屋|西西论坛

本网站所有资源来自网络,如无意中侵犯了您的权益,请发邮件至 [email protected],立即清除相关链接

GMT+8, 2021-9-19 10:10 , Processed in 0.141140 second(s), 17 queries .

Powered by Discuz! X3.2

© 2001-2013 Comsenz Inc.

快速回复 返回顶部 返回列表