西西论坛

 找回密码
 立即注册
搜索

跳跃的原因 The.Reason.I.Jump.2020.720p.BluRay.x264-SCARE 2.99GB

[复制链接]
admin 发表于 5 天前 | 显示全部楼层 |阅读模式
跳跃的原因 The.Reason.I.Jump.2020.720p.BluRay.x264-SCARE 2.99GB                                                                                                                                                                                                                                                                                                                                                                                                                                                                                                                                        -->
帖子完整标题:跳跃的原因 The.Reason.I.Jump.2020.720p.BluRay.x264-SCARE 2.99GB



0e0f76eb508671a4eae5a9a48b811d2c.jpg



◎译  名 跳跃的原因
◎片  名 The Reason I Jump
◎年  代 2020
◎产  地 美国,英国
◎类  别 纪录片
◎语  言 英语
◎上映日期 2020-01-25(圣丹斯电影节)
◎豆瓣评分 /10 from 0 users
◎豆瓣链接 
◎片  长 82分钟
◎导  演 Jerry Rothwell Jerry Rothwell
◎编  剧 Naoki Higashida  Naoki Higashida

◎标  签 纪录片 | 美国 | 英国 | 2020 | 自闭症 | PA-SundanceB世界纪录片 | 英国电影 | 电影

◎简  介

  Based on the book by Naoki Higashida this immersive film explores the experiences of nonspeaking autistic people around the world.

◎获奖情况

  第36届圣丹斯电影节 ?(2020)
  评审团大奖世界电影单元纪录片(提名) JerryRothwell
  观众奖世界电影单元纪录片
  
  第68届美国音效剪辑协会奖 ?(2021)
  金卷轴奖最佳纪录片音效剪辑
  
  第23届英国独立电影奖 ?(2020)
  最佳纪录片
  最佳音乐(提名)
  最佳音效
Video
ID                                       : 1
Format                                   : AVC
Format/Info                              : Advanced Video Codec
Format profile                           :
Format settings                          : CABAC / 11 Ref Frames
Format settings, CABAC                   : Yes
Format settings, Reference frames        : 11 frames
Codec ID                                 : V_MPEG4/ISO/AVC
Duration                                 : 1 h 22 min
Bit rate                                 : 4 554 kb/s
Width                                    : 1 280 pixels
Height                                   : 546 pixels
Display aspect ratio                     : 2.35:1
Frame rate mode                          : Constant
Frame rate                               : 24.000 FPS
Color space                              : YUV
Chroma subsampling                       : 4:2:0
Bit depth                                : 8 bits
Scan type                                : Progressive
Bits/(Pixel*Frame)                       : 0.272
Stream size                              : 2.61 GiB (87%)
Writing library                          : x264 core 164 r3065 ae03d92
Encoding settings                        : cabac=1 / ref=11 / deblock=1:-3:-3 / analyse=0x3:0x133 / me=umh / subme=10 / psy=1 / psy_rd=1.20:0.00 / mixed_ref=1 / me_range=24 / chroma_me=1 / trellis=2 / 8x8dct=1 / cqm=0 / deadzone=21,11 / fast_pskip=0 / chroma_qp_offset=-2 / threads=17 / lookahead_threads=2 / sliced_threads=0 / nr=0 / decimate=0 / interlaced=0 / bluray_compat=0 / constrained_intra=0 / bframes=8 / b_pyramid=2 / b_adapt=2 / b_bias=0 / direct=3 / weightb=1 / open_gop=0 / weightp=2 / keyint=250 / keyint_min=24 / scenecut=40 / intra_refresh=0 / rc_lookahead=60 / rc=crf / mbtree=1 / crf=15.0 / qcomp=0.60 / qpmin=0 / qpmax=69 / qpstep=4 / ip_ratio=1.40 / aq=3:0.90
Default                                  : Yes
Forced                                   : No
Color range                              : Limited
Matrix coefficients                      : BT.709

Audio
ID                                       : 2
Format                                   : AC-3
Format/Info                              : Audio Coding 3
Commercial name                          : Dolby Digital
Format settings                          : Dolby Surround EX
Codec ID                                 : A_AC3
Duration                                 : 1 h 22 min
Bit rate mode                            : Constant
Bit rate                                 : 640 kb/s
Channel(s)                               : 6 channels
Channel layout                           : L R C LFE Ls Rs
Sampling rate                            : 48.0 kHz
Frame rate                               : 31.250 FPS (1536 SPF)
Compression mode                         : Lossy
Stream size                              : 376 MiB (12%)
Language                                 : English
Service kind                             : Complete Main
Default                                  : Yes
Forced                                   : No

Text
ID                                       : 3
Format                                   : PGS
Muxing mode                              : zlib
Codec ID                                 : S_HDMV/PGS
Codec ID/Info                            : Picture based subtitle format used on BDs/HD-DVDs
Duration                                 : 1 h 21 min
Bit rate                                 : 35.9 kb/s
Count of elements                        : 2100
Stream size                              : 20.9 MiB (1%)
Title                                    : SDH
Language                                 : English
Default                                  : No
Forced                                   : No

Menu
00:00:00.000                             : Chapter 01
00:07:20.917                             : Chapter 02
00:18:20.208                             : Chapter 03
00:27:09.000                             : Chapter 04
00:37:41.208                             : Chapter 05
00:52:30.958                             : Chapter 06
01:02:51.500                             : Chapter 07
01:13:18.250                             : Chapter 08
01:22:06.083                             : Chapter 09

a0a14e5b0923475ff4ad980158336274.jpg





                                                                                                                                                                                                        
                                                                                                                                                                                                                                                                                                                                                                                                                                                                                                                                                                                                                                                                                                                                                                                                                                                        
4d32deedcca3c392c3c18144a49e2796.torrent (30.61 KB, 下载次数: 0)

回复

使用道具 举报

小黑屋|西西论坛

本网站所有资源来自网络,如无意中侵犯了您的权益,请发邮件至 [email protected],立即清除相关链接

GMT+8, 2021-9-19 10:35 , Processed in 0.145907 second(s), 17 queries .

Powered by Discuz! X3.2

© 2001-2013 Comsenz Inc.

快速回复 返回顶部 返回列表