西西论坛

 找回密码
 立即注册
搜索

星际旅行2:可汗怒吼 Star.Trek.II.The.Wrath.of.Khan.1982.DC.REMASTERED.720p.BluRay ...

[复制链接]
admin 发表于 5 天前 | 显示全部楼层 |阅读模式
星际旅行2:可汗怒吼 Star.Trek.II.The.Wrath.of.Khan.1982.DC.REMASTERED.720p.BluRay.x264-OL                                                                                                                                                                                                                                                                                                                                                                                                                                                                                                                                        -->
帖子完整标题:星际旅行2:可汗怒吼 Star.Trek.II.The.Wrath.of.Khan.1982.DC.REMASTERED.720p.BluRay.x264-OLDTiME 3.31GB



b4d2ccae90cbb323a7b094b41e5c3e52.jpg



◎译  名 星际旅行2:可汗怒吼/Star Trek 2/星空奇遇记2:大汗的愤怒(港)/星舰奇航记2:星战大怒吼(台)/星舰迷航记2/星际争霸战2/星际迷航2:可汗之怒
◎片  名 Star Trek II: The Wrath of Khan
◎年  代 1982
◎产  地 美国
◎类  别 动作 / 科幻 / 惊悚 / 冒险
◎语  言 英语
◎上映日期 1982-06-04
◎豆瓣评分 7.7/10 from 12093 users
◎豆瓣链接 
◎片  长 113分钟
◎导  演 尼古拉斯·迈耶 Nicholas Meyer
◎编  剧 杰克·B·索厄德斯 Jack B. Sowards / 尼古拉斯·迈耶 Nicholas Meyer
◎主  演 威廉·夏特纳 William Shatner
       伦纳德·尼莫伊 Leonard Nimoy
       德福雷斯特·凯利 DeForest Kelley
       詹姆斯·杜汉 James Doohan
       沃尔特·凯尼格 Walter Koenig
       武井乔治 George Takei
       尼切尔·尼克斯 Nichelle Nichols
       比比·贝什 Bibi Besch
       梅里特·布瑞克 Merritt Butrick
       保罗·温菲尔德 Paul Winfield
       柯尔斯蒂·艾利 Kirstie Alley
       里卡多·蒙特尔班 Ricardo Montalban
       艾克·艾森曼 Ike Eisenmann
       约翰·瓦尔加斯 John Vargas
       约翰·温斯顿 John Winston

◎标  签 科幻 | 美国 | StarTrek | 星际迷航 | 1982 | 经典 | 美国电影 | 电影

◎简  介

  邪恶的可汗逃脱十五年前被寇克船长拘禁的星球,他本人是一位智勇双全的领袖,但此刻已变成一个邪恶的狂人,他誓言要向寇克船长讨回血仇。于是他先劫持了一艘联邦战舰,后又偷取了寇克船长的儿子和旧情人制造的毁灭性武器。并引诱企业号投入他精心设计的圈套……
Video
ID                                       : 1
Format                                   : AVC
Format/Info                              : Advanced Video Codec
Format profile                           :
Format settings                          : CABAC / 8 Ref Frames
Format settings, CABAC                   : Yes
Format settings, Reference frames        : 8 frames
Codec ID                                 : V_MPEG4/ISO/AVC
Duration                                 : 1 h 56 min
Bit rate                                 : 3 021 kb/s
Width                                    : 1 280 pixels
Height                                   : 536 pixels
Display aspect ratio                     : 2.40:1
Frame rate mode                          : Constant
Frame rate                               : 23.976 (24000/1001/189150) FPS
Color space                              : YUV
Chroma subsampling                       : 4:2:0
Bit depth                                : 8 bits
Scan type                                : Progressive
Bits/(Pixel*Frame)                       : 0.184
Stream size                              : 2.46 GiB (74%)
Writing library                          : x264 core 164 r3065 ae03d92
Encoding settings                        : cabac=1 / ref=8 / deblock=1:-3:-3 / analyse=0x3:0x133 / me=umh / subme=9 / psy=1 / psy_rd=1.00:0.00 / mixed_ref=1 / me_range=16 / chroma_me=1 / trellis=2 / 8x8dct=1 / cqm=0 / deadzone=21,11 / fast_pskip=0 / chroma_qp_offset=-2 / threads=17 / lookahead_threads=1 / sliced_threads=0 / nr=0 / decimate=1 / interlaced=0 / bluray_compat=0 / constrained_intra=0 / bframes=3 / b_pyramid=2 / b_adapt=2 / b_bias=0 / direct=3 / weightb=1 / open_gop=0 / weightp=2 / keyint=250 / keyint_min=23 / scenecut=40 / intra_refresh=0 / rc_lookahead=60 / rc=crf / mbtree=1 / crf=17.0 / qcomp=0.60 / qpmin=0 / qpmax=69 / qpstep=4 / ip_ratio=1.40 / aq=1:1.00
Language                                 : English
Default                                  : Yes
Forced                                   : No

Audio #1
ID                                       : 2
Format                                   : AC-3
Format/Info                              : Audio Coding 3
Commercial name                          : Dolby Digital
Codec ID                                 : A_AC3
Duration                                 : 1 h 56 min
Bit rate mode                            : Constant
Bit rate                                 : 640 kb/s
Channel(s)                               : 6 channels
Channel layout                           : L R C LFE Ls Rs
Sampling rate                            : 48.0 kHz
Frame rate                               : 31.250 FPS (1536 SPF)
Compression mode                         : Lossy
Stream size                              : 533 MiB (16%)
Language                                 : English
Service kind                             : Complete Main
Default                                  : Yes
Forced                                   : No

Audio #2
ID                                       : 3
Format                                   : AAC LC
Format/Info                              : Advanced Audio Codec Low Complexity
Codec ID                                 : A_AAC-2
Duration                                 : 1 h 56 min
Bit rate                                 : 113 kb/s
Channel(s)                               : 2 channels
Channel layout                           : L R
Sampling rate                            : 48.0 kHz
Frame rate                               : 46.875 FPS (1024 SPF)
Compression mode                         : Lossy
Delay relative to video                  : 9 ms
Stream size                              : 94.4 MiB (3%)
Title                                    : commentary
Language                                 : English
Default                                  : No
Forced                                   : No

Text #1
ID                                       : 4
Format                                   : PGS
Muxing mode                              : zlib
Codec ID                                 : S_HDMV/PGS
Codec ID/Info                            : Picture based subtitle format used on BDs/HD-DVDs
Duration                                 : 1 h 47 min
Bit rate                                 : 34.5 kb/s
Count of elements                        : 2286
Stream size                              : 26.6 MiB (1%)
Language                                 : English
Default                                  : No
Forced                                   : No

Text #2
ID                                       : 5
Format                                   : PGS
Muxing mode                              : zlib
Codec ID                                 : S_HDMV/PGS
Codec ID/Info                            : Picture based subtitle format used on BDs/HD-DVDs
Duration                                 : 1 h 47 min
Bit rate                                 : 37.0 kb/s
Count of elements                        : 2456
Stream size                              : 28.6 MiB (1%)
Language                                 : English
Default                                  : No
Forced                                   : No

Text #3
ID                                       : 6
Format                                   : PGS
Muxing mode                              : zlib
Codec ID                                 : S_HDMV/PGS
Codec ID/Info                            : Picture based subtitle format used on BDs/HD-DVDs
Duration                                 : 1 h 53 min
Bit rate                                 : 27.0 kb/s
Count of elements                        : 1910
Stream size                              : 22.0 MiB (1%)
Language                                 : Danish
Default                                  : No
Forced                                   : No

Text #4
ID                                       : 7
Format                                   : PGS
Muxing mode                              : zlib
Codec ID                                 : S_HDMV/PGS
Codec ID/Info                            : Picture based subtitle format used on BDs/HD-DVDs
Duration                                 : 1 h 55 min
Bit rate                                 : 28.8 kb/s
Count of elements                        : 2106
Stream size                              : 23.9 MiB (1%)
Language                                 : German
Default                                  : No
Forced                                   : No

Text #5
ID                                       : 8
Format                                   : PGS
Muxing mode                              : zlib
Codec ID                                 : S_HDMV/PGS
Codec ID/Info                            : Picture based subtitle format used on BDs/HD-DVDs
Duration                                 : 1 h 55 min
Bit rate                                 : 31.4 kb/s
Count of elements                        : 2116
Stream size                              : 26.0 MiB (1%)
Language                                 : Spanish
Default                                  : No
Forced                                   : No

Text #6
ID                                       : 9
Format                                   : PGS
Muxing mode                              : zlib
Codec ID                                 : S_HDMV/PGS
Codec ID/Info                            : Picture based subtitle format used on BDs/HD-DVDs
Duration                                 : 1 h 55 min
Bit rate                                 : 26.9 kb/s
Count of elements                        : 2150
Stream size                              : 22.2 MiB (1%)
Language                                 : French
Default                                  : No
Forced                                   : No

Text #7
ID                                       : 10
Format                                   : PGS
Muxing mode                              : zlib
Codec ID                                 : S_HDMV/PGS
Codec ID/Info                            : Picture based subtitle format used on BDs/HD-DVDs
Duration                                 : 1 h 48 min
Bit rate                                 : 19.3 kb/s
Count of elements                        : 2136
Stream size                              : 14.9 MiB (0%)
Language                                 : Japanese
Default                                  : No
Forced                                   : No

Text #8
ID                                       : 11
Format                                   : PGS
Muxing mode                              : zlib
Codec ID                                 : S_HDMV/PGS
Codec ID/Info                            : Picture based subtitle format used on BDs/HD-DVDs
Duration                                 : 1 h 53 min
Bit rate                                 : 26.1 kb/s
Count of elements                        : 1646
Stream size                              : 21.2 MiB (1%)
Language                                 : Dutch
Default                                  : No
Forced                                   : No

Text #9
ID                                       : 12
Format                                   : PGS
Muxing mode                              : zlib
Codec ID                                 : S_HDMV/PGS
Codec ID/Info                            : Picture based subtitle format used on BDs/HD-DVDs
Duration                                 : 1 h 53 min
Bit rate                                 : 25.4 kb/s
Count of elements                        : 1730
Stream size                              : 20.6 MiB (1%)
Language                                 : Norwegian
Default                                  : No
Forced                                   : No

Text #10
ID                                       : 13
Format                                   : PGS
Muxing mode                              : zlib
Codec ID                                 : S_HDMV/PGS
Codec ID/Info                            : Picture based subtitle format used on BDs/HD-DVDs
Duration                                 : 1 h 53 min
Bit rate                                 : 27.4 kb/s
Count of elements                        : 1910
Stream size                              : 22.3 MiB (1%)
Language                                 : Finnish
Default                                  : No
Forced                                   : No

Text #11
ID                                       : 14
Format                                   : PGS
Muxing mode                              : zlib
Codec ID                                 : S_HDMV/PGS
Codec ID/Info                            : Picture based subtitle format used on BDs/HD-DVDs
Duration                                 : 1 h 53 min
Bit rate                                 : 24.8 kb/s
Count of elements                        : 1740
Stream size                              : 20.1 MiB (1%)
Language                                 : Swedish
Default                                  : No
Forced                                   : No

Text #12
ID                                       : 15
Format                                   : PGS
Muxing mode                              : zlib
Codec ID                                 : S_HDMV/PGS
Codec ID/Info                            : Picture based subtitle format used on BDs/HD-DVDs
Duration                                 : 1 h 51 min
Bit rate                                 : 48.0 kb/s
Count of elements                        : 2593
Stream size                              : 38.3 MiB (1%)
Language                                 : English
Default                                  : No
Forced                                   : No

Text #13
ID                                       : 16
Format                                   : PGS
Muxing mode                              : zlib
Codec ID                                 : S_HDMV/PGS
Codec ID/Info                            : Picture based subtitle format used on BDs/HD-DVDs
Duration                                 : 1 h 56 min
Bit rate                                 : 48.0 kb/s
Count of elements                        : 2595
Stream size                              : 39.9 MiB (1%)
Language                                 : German
Default                                  : No
Forced                                   : No

Text #14
ID                                       : 17
Format                                   : PGS
Muxing mode                              : zlib
Codec ID                                 : S_HDMV/PGS
Codec ID/Info                            : Picture based subtitle format used on BDs/HD-DVDs
Duration                                 : 1 h 56 min
Bit rate                                 : 40.0 kb/s
Count of elements                        : 2595
Stream size                              : 33.3 MiB (1%)
Language                                 : Spanish
Default                                  : No
Forced                                   : No

Text #15
ID                                       : 18
Format                                   : PGS
Muxing mode                              : zlib
Codec ID                                 : S_HDMV/PGS
Codec ID/Info                            : Picture based subtitle format used on BDs/HD-DVDs
Duration                                 : 1 h 56 min
Bit rate                                 : 42.7 kb/s
Count of elements                        : 2595
Stream size                              : 35.5 MiB (1%)
Language                                 : French
Default                                  : No
Forced                                   : No

Text #16
ID                                       : 19
Format                                   : PGS
Muxing mode                              : zlib
Codec ID                                 : S_HDMV/PGS
Codec ID/Info                            : Picture based subtitle format used on BDs/HD-DVDs
Duration                                 : 1 h 51 min
Bit rate                                 : 33.2 kb/s
Count of elements                        : 1953
Stream size                              : 26.5 MiB (1%)
Language                                 : Japanese
Default                                  : No
Forced                                   : No

Text #17
ID                                       : 20
Format                                   : PGS
Muxing mode                              : zlib
Codec ID                                 : S_HDMV/PGS
Codec ID/Info                            : Picture based subtitle format used on BDs/HD-DVDs
Duration                                 : 1 h 55 min
Bit rate                                 : 54.2 kb/s
Count of elements                        : 3018
Stream size                              : 44.7 MiB (1%)
Language                                 : English
Default                                  : No
Forced                                   : No

Text #18
ID                                       : 21
Format                                   : PGS
Muxing mode                              : zlib
Codec ID                                 : S_HDMV/PGS
Codec ID/Info                            : Picture based subtitle format used on BDs/HD-DVDs
Duration                                 : 1 h 55 min
Bit rate                                 : 54.1 kb/s
Count of elements                        : 3020
Stream size                              : 44.8 MiB (1%)
Language                                 : German
Default                                  : No
Forced                                   : No

Text #19
ID                                       : 22
Format                                   : PGS
Muxing mode                              : zlib
Codec ID                                 : S_HDMV/PGS
Codec ID/Info                            : Picture based subtitle format used on BDs/HD-DVDs
Duration                                 : 1 h 55 min
Bit rate                                 : 47.5 kb/s
Count of elements                        : 3020
Stream size                              : 39.2 MiB (1%)
Language                                 : Spanish
Default                                  : No
Forced                                   : No

Text #20
ID                                       : 23
Format                                   : PGS
Muxing mode                              : zlib
Codec ID                                 : S_HDMV/PGS
Codec ID/Info                            : Picture based subtitle format used on BDs/HD-DVDs
Duration                                 : 1 h 55 min
Bit rate                                 : 47.0 kb/s
Count of elements                        : 3020
Stream size                              : 38.9 MiB (1%)
Language                                 : French
Default                                  : No
Forced                                   : No

Text #21
ID                                       : 24
Format                                   : PGS
Muxing mode                              : zlib
Codec ID                                 : S_HDMV/PGS
Codec ID/Info                            : Picture based subtitle format used on BDs/HD-DVDs
Duration                                 : 1 h 55 min
Bit rate                                 : 38.6 kb/s
Count of elements                        : 2750
Stream size                              : 31.8 MiB (1%)
Language                                 : Japanese
Default                                  : No
Forced                                   : No

Text #22
ID                                       : 25
Format                                   : PGS
Muxing mode                              : zlib
Codec ID                                 : S_HDMV/PGS
Codec ID/Info                            : Picture based subtitle format used on BDs/HD-DVDs
Duration                                 : 1 h 51 min
Bit rate                                 : 46.0 kb/s
Count of elements                        : 2504
Stream size                              : 36.7 MiB (1%)
Language                                 : English
Default                                  : No
Forced                                   : No

Text #23
ID                                       : 26
Format                                   : PGS
Muxing mode                              : zlib
Codec ID                                 : S_HDMV/PGS
Codec ID/Info                            : Picture based subtitle format used on BDs/HD-DVDs
Duration                                 : 1 h 55 min
Bit rate                                 : 46.1 kb/s
Count of elements                        : 2506
Stream size                              : 38.2 MiB (1%)
Language                                 : German
Default                                  : No
Forced                                   : No

Text #24
ID                                       : 27
Format                                   : PGS
Muxing mode                              : zlib
Codec ID                                 : S_HDMV/PGS
Codec ID/Info                            : Picture based subtitle format used on BDs/HD-DVDs
Duration                                 : 1 h 55 min
Bit rate                                 : 38.7 kb/s
Count of elements                        : 2506
Stream size                              : 32.1 MiB (1%)
Language                                 : Spanish
Default                                  : No
Forced                                   : No

Text #25
ID                                       : 28
Format                                   : PGS
Muxing mode                              : zlib
Codec ID                                 : S_HDMV/PGS
Codec ID/Info                            : Picture based subtitle format used on BDs/HD-DVDs
Duration                                 : 1 h 55 min
Bit rate                                 : 41.0 kb/s
Count of elements                        : 2506
Stream size                              : 34.0 MiB (1%)
Language                                 : French
Default                                  : No
Forced                                   : No

Text #26
ID                                       : 29
Format                                   : PGS
Muxing mode                              : zlib
Codec ID                                 : S_HDMV/PGS
Codec ID/Info                            : Picture based subtitle format used on BDs/HD-DVDs
Duration                                 : 1 h 51 min
Bit rate                                 : 31.8 kb/s
Count of elements                        : 1865
Stream size                              : 25.3 MiB (1%)
Language                                 : Japanese
Default                                  : No
Forced                                   : No

Text #27
ID                                       : 30
Format                                   : PGS
Muxing mode                              : zlib
Codec ID                                 : S_HDMV/PGS
Codec ID/Info                            : Picture based subtitle format used on BDs/HD-DVDs
Duration                                 : 1 h 50 min
Bit rate                                 : 11.9 kb/s
Count of elements                        : 954
Stream size                              : 9.45 MiB (0%)
Language                                 : Japanese
Default                                  : No
Forced                                   : No

Text #28
ID                                       : 31
Format                                   : PGS
Muxing mode                              : zlib
Codec ID                                 : S_HDMV/PGS
Codec ID/Info                            : Picture based subtitle format used on BDs/HD-DVDs
Duration                                 : 1 h 33 min
Bit rate                                 : 98 b/s
Count of elements                        : 36
Stream size                              : 66.9 KiB (0%)
Title                                    : forced
Language                                 : Japanese
Default                                  : No
Forced                                   : No

Menu
00:00:00.000                             : en:Chapter 01
00:02:59.471                             : en:Chapter 02
00:07:44.464                             : en:Chapter 03
00:11:53.504                             : en:Chapter 04
00:25:38.996                             : en:Chapter 05
00:31:57.332                             : en:Chapter 06
00:42:53.905                             : en:Chapter 07
00:48:12.056                             : en:Chapter 08
00:57:45.462                             : en:Chapter 09
01:08:36.863                             : en:Chapter 10
01:13:55.473                             : en:Chapter 11
01:18:59.818                             : en:Chapter 12
01:21:23.629                             : en:Chapter 13
01:26:43.949                             : en:Chapter 14
01:32:07.563                             : en:Chapter 15
01:38:48.130                             : en:Chapter 16
01:51:02.072                             : en:Chapter 17

a0da1187e89d3ea2b341a7e8057255c6.png

[/url]db7a0aac5a2e4f777dccf896d7e6f2aa.png

[/url]



                                                                                                                                                                                                        
                                                                                                                                                                                                                                                                                                                                                                                                                                                                                                                                                                                                                                                                                                                                                                                                                                                        
8b3ac855d4fb81c502ff267e1138dd3c.torrent (17.31 KB, 下载次数: 0)

回复

使用道具 举报

小黑屋|西西论坛

本网站所有资源来自网络,如无意中侵犯了您的权益,请发邮件至 [email protected],立即清除相关链接

GMT+8, 2021-9-19 10:06 , Processed in 0.122217 second(s), 17 queries .

Powered by Discuz! X3.2

© 2001-2013 Comsenz Inc.

快速回复 返回顶部 返回列表