西西论坛

 找回密码
 立即注册
搜索

秀你悲伤的爱 Funuke.Show.Some.Love.You.Losers.2007.1080p.BluRay.x264-ORBS 12.44G ...

[复制链接]
admin 发表于 7 天前 | 显示全部楼层 |阅读模式
秀你悲伤的爱 Funuke.Show.Some.Love.You.Losers.2007.1080p.BluRay.x264-ORBS 12.44GB                                                                                                                                                                                                                                                                                                                                                                                                                                                                                                                                        -->
帖子完整标题:秀你悲伤的爱 Funuke.Show.Some.Love.You.Losers.2007.1080p.BluRay.x264-ORBS 12.44GB



3604ca1e36777099a30f7016e08792b7.jpg



◎译  名 秀你悲伤的爱/Funuke: Show Some Love, You Losers!/悲伤爱情/悲伤的爱/悲情家族/窝囊废们,让我看看悲伤的爱吧!(台)/苦妹·丧姐·连环图
◎片  名 腑抜けども、悲しみの愛を見せろ
◎年  代 2007
◎产  地 日本
◎类  别 剧情 / 家庭
◎语  言 日语
◎上映日期 2007-07-07
◎豆瓣评分 7.5/10 from 1438 users
◎豆瓣链接 
◎片  长 112分钟
◎导  演 吉田大八 Daihachi Yoshida
◎编  剧 吉田大八 Daihachi Yoshida / 本谷有希子 Yukiko Motoya
◎主  演 佐藤江梨子 Eriko Sat?
       永濑正敏 Masatoshi Nagase
       永作博美 Hiromi Nagasaku
       山本浩司 Hiroshi Yamamoto
       佐津川爱美 Aimi Satsukawa
       上田耕一 K?ichi Ueda
       谷川昭一朗 Shoichiro Tanigawa

◎标  签 日本 | 日本电影 | 吉田大八 | 永作博美 | 2007 | 家庭 | 秀你悲伤的爱 | 永瀬正敏

◎简  介

  北陆的乡村中,和合夫妇两人死于一场车祸,长子宏道接管家业,新婚妻子京子为人勤勉,在宏道的打骂中操持家务,并照顾患有哮喘的宏道小妹清美(佐津川爱美 饰)。在东京为演员梦打拼的长女澄伽(佐藤江梨子 饰)返乡奔丧,同时也为曲折的演艺生涯寻找新的机会。两姐妹几年未见,却并无亲情表示,原来当年为家人所不看好的澄伽执意投身表演,为此不惜向父亲挥刀,宏道在混乱中受伤,为安慰同父异母的妹妹,宏道与澄伽发生了关系,并发誓不再碰触其他女人。这一切被清美看在眼里,又通过漫画发表出来,隐私暴露的澄伽始终认为小妹的漫画影响了自身前途,此次回乡,她要向妹妹讨回损失……
  
  本片获2007年《电影旬报》十佳电影第十名。

◎获奖情况

  第32届报知映画赏 ?(2007)
  最佳女配角 永作博美
Video
ID                                       : 1
Format                                   : AVC
Format/Info                              : Advanced Video Codec
Format profile                           :
Format settings                          : CABAC / 4 Ref Frames
Format settings, CABAC                   : Yes
Format settings, Reference frames        : 4 frames
Codec ID                                 : V_MPEG4/ISO/AVC
Duration                                 : 1 h 52 min
Bit rate                                 : 15.4 Mb/s
Width                                    : 1 918 pixels
Height                                   : 1 036 pixels
Display aspect ratio                     : 1.85:1
Frame rate mode                          : Constant
Frame rate                               : 23.976 (24000/1001/189150) FPS
Color space                              : YUV
Chroma subsampling                       : 4:2:0
Bit depth                                : 8 bits
Scan type                                : Progressive
Bits/(Pixel*Frame)                       : 0.323
Stream size                              : 12.1 GiB (98%)
Writing library                          : x264 core 164 r3065 ae03d92
Encoding settings                        : cabac=1 / ref=4 / deblock=1:-3:-3 / analyse=0x3:0x133 / me=umh / subme=10 / psy=1 / psy_rd=1.20:0.00 / mixed_ref=1 / me_range=24 / chroma_me=1 / trellis=2 / 8x8dct=1 / cqm=0 / deadzone=21,11 / fast_pskip=0 / chroma_qp_offset=-2 / threads=24 / lookahead_threads=4 / sliced_threads=0 / nr=0 / decimate=0 / interlaced=0 / bluray_compat=0 / constrained_intra=0 / bframes=8 / b_pyramid=2 / b_adapt=2 / b_bias=0 / direct=3 / weightb=1 / open_gop=0 / weightp=2 / keyint=250 / keyint_min=23 / scenecut=40 / intra_refresh=0 / rc_lookahead=60 / rc=crf / mbtree=1 / crf=20.5 / qcomp=0.60 / qpmin=0 / qpmax=69 / qpstep=4 / ip_ratio=1.40 / aq=3:0.90
Default                                  : Yes
Forced                                   : No
Color range                              : Limited
Matrix coefficients                      : BT.709

Audio
ID                                       : 2
Format                                   : FLAC
Format/Info                              : Free Lossless Audio Codec
Codec ID                                 : A_FLAC
Duration                                 : 1 h 52 min
Bit rate mode                            : Variable
Bit rate                                 : 369 kb/s
Channel(s)                               : 2 channels
Channel layout                           : L R
Sampling rate                            : 48.0 kHz
Frame rate                               : 11.719 FPS (4096 SPF)
Bit depth                                : 16 bits
Compression mode                         : Lossless
Stream size                              : 298 MiB (2%)
Writing library                          : libFLAC 1.3.3 (UTC 2019-08-04)
Language                                 : Japanese
Default                                  : Yes
Forced                                   : No

Text #1
ID                                       : 3
Format                                   : UTF-8
Codec ID                                 : S_TEXT/UTF8
Codec ID/Info                            : UTF-8 Plain Text
Duration                                 : 1 h 51 min
Bit rate                                 : 37 b/s
Count of elements                        : 1031
Stream size                              : 30.4 KiB (0%)
Title                                    : English (Forced)
Language                                 : English
Default                                  : Yes
Forced                                   : Yes

Text #2
ID                                       : 4
Format                                   : PGS
Muxing mode                              : zlib
Codec ID                                 : S_HDMV/PGS
Codec ID/Info                            : Picture based subtitle format used on BDs/HD-DVDs
Duration                                 : 1 h 51 min
Bit rate                                 : 34.5 kb/s
Count of elements                        : 2030
Stream size                              : 27.4 MiB (0%)
Language                                 : English
Default                                  : No
Forced                                   : No

Menu
00:00:00.000                             : Chapter 01
00:10:32.715                             : Chapter 02
00:23:22.109                             : Chapter 03
00:36:04.788                             : Chapter 04
00:47:50.493                             : Chapter 05
00:58:41.309                             : Chapter 06
01:05:56.452                             : Chapter 07
01:14:16.994                             : Chapter 08
01:25:11.982                             : Chapter 09
01:32:55.904                             : Chapter 10
01:45:24.360                             : Chapter 11
01:49:28.395                             : Chapter 12

66ef6c6398e703827faaf41c17eacd81.jpg





                                                                                                                                                                                                        
                                                                                                                                                                                                                                                                                                                                                                                                                                                                                                                                                                                                                                                                                                                                                                                                                                                        
7a6d6f5b1edf58843ce10841846eccdd.torrent (16.34 KB, 下载次数: 0)

回复

使用道具 举报

小黑屋|西西论坛

本网站所有资源来自网络,如无意中侵犯了您的权益,请发邮件至 [email protected],立即清除相关链接

GMT+8, 2021-9-19 16:58 , Processed in 0.103680 second(s), 17 queries .

Powered by Discuz! X3.2

© 2001-2013 Comsenz Inc.

快速回复 返回顶部 返回列表